Шпионский мост / Bridge of Spies (2015) HDRip

Фильмы в формате DVD

Оценка торрента

5
0
Голосов нет
4
0
Голосов нет
3
0
Голосов нет
2
0
Голосов нет
1
0
Голосов нет
 
Всего голосов : 0

 Статистика раздачи 
Размер: 1.46 ГБ   |  Зарегистрирован: Январь 21, 2016, 11:17 am   |   .torrent скачан: 34084 раз
Сидеров: 15013  [ 0 байт/сек ]   Личеров: 888  [ 0 байт/сек ]  

Шпионский мост / Bridge of Spies (2015) HDRip

Сообщение sergey » Январь 21, 2016, 11:17 am

Страна: США, Германия, Индия
Жанр: триллер, драма, биография

Год выпуска: 2015

Продолжительность: 02:21:19

Перевод: Профессиональный (полное дублирование) Чистый звук (без рекламы)

Субтитры: http://multi-up.com/1085080 - субтитры на текст

Режиссер: Стивен Спилберг / Steven Spielberg

В ролях: Том Хэнкс, Алан Алда, Эми Райан, Остин Стоуэлл, Билли Магнуссен, Ив Хьюсон, Марк Райлэнс, Доменик Ломбардоззи, Себастьян Кох, Майкл Гэстон

Дублёры: Станислав Концевич (James B. Donovan), Станислав Тикунов (Francis Gary Powers), Денис Некрасов (Hoffman), Евгения Ваган (Carol Donovan), Михаил Тихонов (Frederic Pryor), Сергей Чихачев (Harald Ott)

Описание: Действие фильма происходит на фоне серии реальных исторических событий и рассказывает о бруклинском адвокате Джеймсе Доноване, который оказывается в эпицентре холодной войны, когда ЦРУ отправляет его на практически невозможное задание - договориться об освобождении захваченного в СССР американского пилота самолета-разведчика U2.


Качество: HDRip | BDRip 720p
Контейнер: AVI
Видео: XviD, 720x304 (2.35:1), 1275 kbps, 23,976 fps, 0,243 bpp
Аудио: AC3 / 2.0 / 48 kHz / 192 kbps / 16 bit





General
Complete name : D:My_ripShpionskii.most.2015.HDRip.by.NewTeam.avi
Format : AVI
Format/Info : Audio Video Interleave
File size : 1.46 GiB
Duration : 2h 21mn
Overall bit rate : 1 477 Kbps
Writing application : VirtualDubMod 1.5.10.3 | http://www.virtualdub-fr.org || (build 2550/release)
Writing library : VirtualDubMod build 2550/release

Video
ID : 0
Format : MPEG-4 Visual
Format profile : Advanced Simple@L5
Format settings, BVOP : 1
Format settings, QPel : No
Format settings, GMC : No warppoints
Format settings, Matrix : Custom
Codec ID : XVID
Codec ID/Hint : XviD
Duration : 2h 21mn
Bit rate : 1 275 Kbps
Width : 720 pixels
Height : 304 pixels
Display aspect ratio : 2.35:1
Frame rate : 23.976 (23976/1000) fps
Color space : YUV
Chroma subsampling : 4:2:0
Bit depth : 8 bits
Scan type : Progressive
Compression mode : Lossy
Bits/(Pixel*Frame) : 0.243
Stream size : 1.26 GiB (86%)
Writing library : XviD 73

Audio
ID : 1
Format : AC-3
Format/Info : Audio Coding 3
Mode extension : CM (complete main)
Format settings, Endianness : Big
Codec ID : 2000
Duration : 2h 21mn
Bit rate mode : Constant
Bit rate : 192 Kbps
Channel(s) : 2 channels
Channel positions : Front: L R
Sampling rate : 48.0 KHz
Frame rate : 31.250 fps (1536 spf)
Compression mode : Lossy
Stream size : 194 MiB (13%)
Alignment : Split accross interleaves
Interleave, duration : 42 ms (1.00 video frame)
Interleave, preload duratio : 500 ms

   
Торрент: Зарегистрирован [Январь 21, 2016, 11:17 am]
Видео DVD Скачать торрент Магнет ссылка Смотреть онлайн
Скачать торрент
[ Размер 15.43 КБ / Просмотров 10 ]
Статус:
Проверен
---
.torrent скачан: 34084 раз
Приватный: Нет (DHT включён)
Размер: 1.46 ГБ (1 565 376 512)
   
Аватара пользователя
sergey
 
Раздал: 42.54 ТБ
Скачал: 198.69 ГБ
Ратио: 265.263
Сообщения: 5358
Зарегистрирован: Август 6, 2012, 2:11 pm
Откуда: СССР

Флаг страны: СССР

  • Похожие торренты
    Ответы
    Просмотры
    Последнее сообщение

Вернуться в Видео DVD



Кто сейчас на конференции

Сейчас эту тему просматривают: нет зарегистрированных пользователей и гости: 1

Ресурс не содержит никакой другой информации, кроме описаний отдельных файлов или их групп, имеющихся у некоторых пользователей данного ресурса. Подтверждением наличия данных файлов у пользователя может иногда являться специальный набор значений, представляющих собой результаты применения односторонних хеш-функций к этим файлам или их группам. Данные наборы значений объединяются пользователями в единое целое и могут быть выложены ими вместе с описаниями имеющихся у них файлов. Администрация данного ресурса не имеет физической возможности убедиться, что описания файлов, выложенные нашими пользователями, равно как и созданные ими наборы хешей от файлов, соответствуют реальным файлам имеющимся у пользователей, а не созданы каким-либо иным способом.
cron
Яндекс.Метрика