Убить Кейна / Kill Kane (2016) WEB-DL 720p | L2

Фильмы в формате WEBRip/Avi и т.д.

Оценка торрента

5
0
Голосов нет
4
0
Голосов нет
3
0
Голосов нет
2
0
Голосов нет
1
0
Голосов нет
 
Всего голосов : 0

 Статистика раздачи 
Размер: 2.39 ГБ   |  Зарегистрирован: Январь 22, 2016, 8:05 am   |   .torrent скачан: 8935 раз
Сидеров: 1352  [ 0 байт/сек ]   Личеров: 178  [ 0 байт/сек ]  

Убить Кейна / Kill Kane (2016) WEB-DL 720p | L2

Сообщение sergey » Январь 22, 2016, 8:05 am

Информация о фильме
Название: Убить Кейна
Оригинальное название: Kill Kane
Год выхода: 2016
Жанр: триллер, криминал
Режиссер: Адам Келли
В ролях: Винни Джонс, Шон Кронин, Николь Фарадей, Сара Александра Маркс, Себастьян Стрит, Ли Бэйн, Дэн Ричардсон, Конор Бору, Джаред Морган, Кейн Серри
О фильме:
Мир учителя был разрушен, после убийства его жены и детей от рук безжалостной банды. Оставшись в одиночестве, он берет инициативу в свои руки и выходит на улицу в поисках справедливости...


Выпущено: Великобритания / Masterplan Film Productions
Продолжительность: 01:14:20
Озвучивание: Любительское (двухголосое) [Parovoz Production]
Примечание: Релиз без рекламы.
Файл
Формат: MKV
Качество: WEB-DL 720p
Видео: MPEG-4 AVC, 3874 kb/s, 1280@960x532
Аудио: Russian: AC3, 256 kb/s (2 ch) / English: AC3, 384 kb/s (6 ch)
Format : Matroska
Format version : Version 2
File size : 2.39 GiB
Duration : 1h 14mn
Overall bit rate : 4 606 Kbps
Encoded date : UTC 2016-01-21 21:24:09
Writing application : mkvmerge v7.8.0 ('River Man') 32bit built on Apr 3 2015 12:11:22
Writing library : libebml v1.3.1 + libmatroska v1.4.2

Video
ID : 1
Format : AVC
Format/Info : Advanced Video Codec
Format profile : Main@L3.1
Format settings, CABAC : No
Format settings, ReFrames : 2 frames
Codec ID : V_MPEG4/ISO/AVC
Duration : 1h 14mn
Bit rate : 3 874 Kbps
Width : 960 pixels
Height : 532 pixels
Display aspect ratio : 2.40:1
Frame rate mode : Constant
Frame rate : 25.000 fps
Color space : YUV
Chroma subsampling : 4:2:0
Bit depth : 8 bits
Scan type : Progressive
Bits/(Pixel*Frame) : 0.303
Stream size : 2.01 GiB (84%)
Language : English
Default : Yes
Forced : No
Color range : Limited
Color primaries : BT.709
Transfer characteristics : BT.709
Matrix coefficients : BT.709

Audio #1
ID : 2
Format : AC-3
Format/Info : Audio Coding 3
Mode extension : CM (complete main)
Format settings, Endianness : Big
Codec ID : A_AC3
Duration : 1h 14mn
Bit rate mode : Constant
Bit rate : 256 Kbps
Channel(s) : 2 channels
Channel positions : Front: L R
Sampling rate : 48.0 KHz
Bit depth : 16 bits
Compression mode : Lossy
Stream size : 136 MiB (6%)
Language : Russian
Default : Yes
Forced : No

Audio #2
ID : 3
Format : AC-3
Format/Info : Audio Coding 3
Mode extension : CM (complete main)
Format settings, Endianness : Big
Codec ID : A_AC3
Duration : 1h 14mn
Bit rate mode : Constant
Bit rate : 384 Kbps
Channel(s) : 6 channels
Channel positions : Front: L C R, Side: L R, LFE
Sampling rate : 48.0 KHz
Bit depth : 16 bits
Compression mode : Lossy
Stream size : 204 MiB (8%)
Language : English
Default : No
Forced : No

Menu
00:00:00.000 : en:Chapter 1
00:18:38.000 : en:Chapter 2
00:44:00.000 : en:Chapter 3
01:10:09.000 : en:Chapter 4






   
Торрент: Зарегистрирован [Январь 22, 2016, 8:05 am]
Видео WEBRip Скачать торрент Магнет ссылка Смотреть онлайн
Скачать торрент
[ Размер 12.61 КБ / Просмотров 14 ]
Статус:
Проверен
---
.torrent скачан: 8935 раз
Приватный: Нет (DHT включён)
Размер: 2.39 ГБ (2 568 205 257)
   
Аватара пользователя
sergey
 
Раздал: 42.54 ТБ
Скачал: 198.69 ГБ
Ратио: 265.234
Сообщения: 5343
Зарегистрирован: Август 6, 2012, 2:11 pm
Откуда: СССР

Флаг страны: СССР

  • Похожие торренты
    Ответы
    Просмотры
    Последнее сообщение

Вернуться в Видео WEBRip



Кто сейчас на конференции

Сейчас эту тему просматривают: нет зарегистрированных пользователей и гости: 1

cron
Ресурс не содержит никакой другой информации, кроме описаний отдельных файлов или их групп, имеющихся у некоторых пользователей данного ресурса. Подтверждением наличия данных файлов у пользователя может иногда являться специальный набор значений, представляющих собой результаты применения односторонних хеш-функций к этим файлам или их группам. Данные наборы значений объединяются пользователями в единое целое и могут быть выложены ими вместе с описаниями имеющихся у них файлов. Администрация данного ресурса не имеет физической возможности убедиться, что описания файлов, выложенные нашими пользователями, равно как и созданные ими наборы хешей от файлов, соответствуют реальным файлам имеющимся у пользователей, а не созданы каким-либо иным способом.
cron
Яндекс.Метрика