Крутые чуваки на Байю / Bad Asses on the Bayou [2015 г., WEB-DLRip, 2160p]

Фильмы в формате WEBRip/Avi и т.д.

Оценка торрента

5
0
Голосов нет
4
0
Голосов нет
3
0
Голосов нет
2
0
Голосов нет
1
0
Голосов нет
 
Всего голосов : 0

 Статистика раздачи 
Размер: 21.46 ГБ   |  Зарегистрирован: Январь 26, 2016, 8:10 am   |   .torrent скачан: 0 раз
Сидеров: 4  [ 0 байт/сек ]   Личеров: 1  [ 0 байт/сек ]  

Крутые чуваки на Байю / Bad Asses on the Bayou [2015 г., WEB-DLRip, 2160p]

Сообщение sergey » Январь 26, 2016, 8:10 am

Крутые чуваки на Байю / Bad Asses on the Bayou
Производство: США
Год выпуска: 2015 г.
Жанр: боевик, драма
Продолжительность: 01:24:48
Перевод: Профессиональный (полное дублирование) [SDI Media]
Оригинальный аудиопоток: английский
Режиссер: Крэйг Мосс / Craig Moss
В ролях
: Дэнни Трехо, Дэнни Гловер, Джон Эймос, Лони Лав, Колби Арпс, Дебора Айоринде, Люсиус Бастон мл., Джимми Беннетт, Джеймс Моусес Блэк, Аллен Бадрикс
Описание: Фрэнк Вега и Бени Поуп возвращаются — на этот раз они отправляются в Луизиану, где им предстоит найти похищенного друга.
Качество видео: WEB-DLRip
Источник: Netflix
Контейнер: MKV
Стандарт разрешения: 2160p
Видео кодек: H.264/AVC
Аудио кодек: AC3
Видео: 3840x2160 at 23.976 fps, ~34.9 Mbps avg
Аудио: English: 48 kHz, AC3, 3/2 (L,C,R,l,r) + LFE ch, ~640.00.00 kbps avg
Аудио #2: Russian: 48 kHz, AC3, 2/0 (L,R) ch, ~192.00.00 kbps avg |Дубляж, SDI Media|
Cубтитры: отсутствуют
Код:
Код: Выделить всё
Format                      : Matroska
Format version              : Version 4 / Version 2
File size                   : 21.5 GiB
Duration                    : 1h 24mn
Overall bit rate            : 36.2 Mbps
Movie name                  : Bad Asses on the Bayou (2015) - Release for ULTRAHDCLUB
Encoded date                : UTC 2016-01-23 15:08:00
Writing application         : mkvmerge v8.5.1 ('Where you lead I will follow') 64bit
Writing library             : libebml v1.3.3 + libmatroska v1.4.4
DURATION                    : 01:24:42.688000000
NUMBER_OF_FRAMES            : 158834
NUMBER_OF_BYTES             : 121984512
_STATISTICS_WRITING_APP     : mkvmerge v8.5.1 ('Where you lead I will follow') 64bit
_STATISTICS_WRITING_DATE_UT : 2016-01-23 15:08:00
_STATISTICS_TAGS            : BPS DURATION NUMBER_OF_FRAMES NUMBER_OF_BYTES
Video
ID                          : 1
Format                      : AVC
Format/Info                 : Advanced Video Codec
Format profile              : [url=http://pirat.ca/cdn-cgi/l/email-protection][email protected][/url]
Format settings, CABAC      : Yes
Format settings, ReFrames   : 5 frames
Codec ID                    : V_MPEG4/ISO/AVC
Duration                    : 1h 24mn
Bit rate                    : 34.9 Mbps
Width                       : 3 840 pixels
Height                      : 2 160 pixels
Display aspect ratio        : 16:9
Frame rate mode             : Constant
Frame rate                  : 23.976 fps
Color space                 : YUV
Chroma subsampling          : 4:2:0
Bit depth                   : 8 bits
Scan type                   : Progressive
Bits/(Pixel*Frame)          : 0.176
Stream size                 : 20.7 GiB (96%)
Title                       : Bad Asses on the Bayou (2015) - Release for ULTRAHDCLUB
Writing library             : x264 core 148 r2638 7599210
Encoding settings           : cabac=1 / ref=5 / deblock=1:-2:-2 / analyse=0x3:0x133 / me=umh / subme=10 / psy=1 / psy_rd=1.00:0.15 / mixed_ref=1 / me_range=48 / chroma_me=1 / trellis=2 / 8x8dct=1 / cqm=0 / deadzone=21,11 / fast_pskip=1 / chroma_qp_offset=-3 / threads=12 / lookahead_threads=2 / sliced_threads=0 / nr=0 / decimate=0 / interlaced=0 / bluray_compat=0 / constrained_intra=0 / bframes=8 / b_pyramid=2 / b_adapt=2 / b_bias=0 / direct=3 / weightb=1 / open_gop=0 / weightp=2 / keyint=240 / keyint_min=23 / scenecut=40 / intra_refresh=0 / rc_lookahead=60 / rc=crf / mbtree=1 / crf=18.0 / qcomp=0.70 / qpmin=0 / qpmax=69 / qpstep=4 / vbv_maxrate=300000 / vbv_bufsize=300000 / crf_max=0.0 / nal_hrd=none / filler=0 / ip_ratio=1.30 / aq=1:0.90
Language                    : English
Default                     : Yes
Forced                      : No
Audio #1
ID                          : 2
Format                      : AC-3
Format/Info                 : Audio Coding 3
Mode extension              : CM (complete main)
Format settings, Endianness : Big
Codec ID                    : A_AC3
Duration                    : 1h 24mn
Bit rate mode               : Constant
Bit rate                    : 384 Kbps
Channel(s)                  : 6 channels
Channel positions           : Front: L C R, Side: L R, LFE
Sampling rate               : 48.0 KHz
Bit depth                   : 16 bits
Compression mode            : Lossy
Stream size                 : 233 MiB (1%)
Title                       : AC3 5.1 @ 640 kbps
Language                    : English
Default                     : Yes
Forced                      : No
Audio #2
ID                          : 3
Format                      : AC-3
Format/Info                 : Audio Coding 3
Mode extension              : CM (complete main)
Format settings, Endianness : Big
Codec ID                    : A_AC3
Duration                    : 1h 24mn
Bit rate mode               : Constant
Bit rate                    : 192 Kbps
Channel(s)                  : 2 channels
Channel positions           : Front: L R
Sampling rate               : 48.0 KHz
Bit depth                   : 16 bits
Compression mode            : Lossy
Stream size                 : 116 MiB (1%)
Title                       : AC3 2.0 @ 192 kbps - DUB, SDI Media
Language                    : Russian
Default                     : No
Forced                      : No
Menu
00:00:00.000                : en:Chapter 01
00:02:20.000                : en:Chapter 02
00:04:53.000                : en:Chapter 03
00:07:00.000                : en:Chapter 04
00:11:18.000                : en:Chapter 05
00:13:24.000                : en:Chapter 06
00:16:38.000                : en:Chapter 07
00:20:56.000                : en:Chapter 08
00:22:27.000                : en:Chapter 09
00:26:06.000                : en:Chapter 10
00:28:50.000                : en:Chapter 11
00:32:24.000                : en:Chapter 12
00:35:37.000                : en:Chapter 13
00:37:42.000                : en:Chapter 14
00:39:35.000                : en:Chapter 15
00:43:46.000                : en:Chapter 16
00:46:08.000                : en:Chapter 17
00:48:53.000                : en:Chapter 18
00:53:25.000                : en:Chapter 19
00:58:11.000                : en:Chapter 20
01:00:40.000                : en:Chapter 21
01:02:24.000                : en:Chapter 22
01:05:59.000                : en:Chapter 23
01:08:52.000                : en:Chapter 24
01:12:05.000                : en:Chapter 25
01:15:10.000                : en:Chapter 26
01:16:56.000                : en:Chapter 27
01:19:23.000                : en:Chapter 28

   
Торрент: Зарегистрирован [Январь 26, 2016, 8:10 am]
Видео WEBRip Скачать торрент Магнет ссылка Смотреть онлайн
Скачать торрент
[ Размер 107.7 КБ / Просмотров 7 ]
Статус:
Проверен
---
.torrent скачан: 0 раз
Приватный: Нет (DHT включён)
Размер: 21.46 ГБ (23 044 293 772)
   
Аватара пользователя
sergey
 
Раздал: 42.54 ТБ
Скачал: 198.69 ГБ
Ратио: 265.234
Сообщения: 5343
Зарегистрирован: Август 6, 2012, 2:11 pm
Откуда: СССР

Флаг страны: СССР

  • Похожие торренты
    Ответы
    Просмотры
    Последнее сообщение

Вернуться в Видео WEBRip



Кто сейчас на конференции

Сейчас эту тему просматривают: нет зарегистрированных пользователей и гости: 1

Ресурс не содержит никакой другой информации, кроме описаний отдельных файлов или их групп, имеющихся у некоторых пользователей данного ресурса. Подтверждением наличия данных файлов у пользователя может иногда являться специальный набор значений, представляющих собой результаты применения односторонних хеш-функций к этим файлам или их группам. Данные наборы значений объединяются пользователями в единое целое и могут быть выложены ими вместе с описаниями имеющихся у них файлов. Администрация данного ресурса не имеет физической возможности убедиться, что описания файлов, выложенные нашими пользователями, равно как и созданные ими наборы хешей от файлов, соответствуют реальным файлам имеющимся у пользователей, а не созданы каким-либо иным способом.
cron
Яндекс.Метрика