На глубине [01-16 из 16] (2015) HDTVRip m

Отечественные и зарубежные сериалы

Оценка торрента

5
0
Голосов нет
4
0
Голосов нет
3
0
Голосов нет
2
0
Голосов нет
1
0
Голосов нет
 
Всего голосов : 0

 Статистика раздачи 
Размер: 5.81 ГБ   |  Зарегистрирован: Февраль 6, 2016, 3:17 pm   |   .torrent скачан: 3257 раз
Сидеров: 1024  [ 0 байт/сек ]   Личеров: 584  [ 0 байт/сек ]  

На глубине [01-16 из 16] (2015) HDTVRip m

Сообщение sergey » Февраль 6, 2016, 3:17 pm

Информация о фильме
Оригинальное название: На глубине
Год выхода: 2015
Жанр: Криминал
Режиссер: Ярослав Мочалов
В ролях: Алексей Гуськов, Дмитрий Ратомский, Полина Сидихина, Михаил Бабичев, Виктория Герасимова, Игорь Бочкин, Василий Бочкарёв, Олег Тактаров, Игорь Савочкин, Сергей Астахов, Юрий Сафаров, Михаил Вологдин, Олег Васильков, Сергей Быстрицкий, Михаил Полицеймако, Алексей Фатеев, Илья Исаев, Эдуард Османов, Олег Чевелёв, Лариса Домаскина, Сослан Фидаров, Алексей Ошурков, Иван Мамонов, Александр Аноприков, Владимир Чуприков, Андрей Бархударов, Алексей Огурцов, Андрей Феськов, Андрей Сорока, Дмитрий Бедерин, Татьяна Демидова, Владимир Шульга, Михаил Солодко, Сергей Карякин, Игорь Огурцов, Олег Сурнов, Ольга Аксёнова, Дмитрий Блажко, Константин Тополага, Сергей Легостаев, Роман Фролов, Ричард Бондарев, Александр Голубков (II), Денис Давыдов, Сергей Беляев, Денис Бобышев, Алайбек Тойчубеков, Виктория Лукина, Игорь Волокитин, Андрей Ташков, Константин Игнатьев (II), Дмитрий Муляр, Евгения Бордзиловская

О фильме:
Одна из специальных групп полицейских под прикрытием занимается поиском особо опасных преступников. Возглавляет группу харизматичный майор Жур (Алексей Гуськов). Характер у него строптивый, начальство его терпеть не может за прямоту и зачастую неординарные действия по обезвреживанию бандитов. К себе в команду майор взял троих: Селима (Михаил Бабичев), Дениса Крылова (Дмитрий Ратомский) — и Алову (Полина Сидихина), которую буквально «вытащил из-под земли» — раньше она работала в УВД при метрополитене. Отряд должен будет выйти на торговцев оружием, для чего Селиму придется сыграть роль одного из заказчиков. Для успешного расследования дела о похищении людей самому Журу нужно будет «подставиться», чтобы попасть в плен к банде, которая удерживает заложника. Нелегкая роль в одной из операций по поиску наркоторговцев ждет и Алову, до работы в органах сталкивавшуюся с наркозависимостью. А внедрение в банду торговцев алмазами станет непростым испытанием для Дениса из-за дружеских отношений с одним из преступников, переступить через которые окажется не так просто.

Страна: Россия
Студия: "Про-Синема продакшн" и "НТВ-Кино" по заказу НТВ
Продолжительность: 16 x ~ 00:45:00
Перевод: Не требуется

Файл
Кодек: XviD
Качество: HDTVRip
Видео: 656x368 (16:9), 25 fps, XviD ~ 1020 kbps avg, 0.170 bit/pixel
Звук: 48 kHz, MP3, 2 ch, 128 kbps avg

Полное имя : Na.glubine.2015.XviD.HDTVRip.by.GeneralFilm�1.serija.avi
Формат : AVI
Формат/Информация : Audio Video Interleave
Размер файла : 372 Мбайт
Продолжительность : 44 м.
Общий поток : 1162 Кбит/сек
Программа кодирования : VirtualDubMod 1.5.10.3 | http://www.virtualdub-fr.org || (build 2550/release)
Библиотека кодирования : VirtualDubMod build 2550/release

Видео
Идентификатор : 0
Формат : MPEG-4 Visual
Профиль формата : Advanced Simple@L5
Параметр BVOP формата : 1
Параметр QPel формата : Нет
Параметр GMC формата : Без точки перехода
Параметр матрицы формата : Выборочная
Идентификатор кодека : XVID
Идентификатор кодека/Подсказка : XviD
Продолжительность : 44 м.
Битрейт : 1024 Кбит/сек
Ширина : 656 пикселей
Высота : 368 пикселей
Соотношение сторон : 16:9
Частота кадров : 25,000 кадров/сек
Цветовое пространство : YUV
Субдискретизация насыщенности : 4:2:0
Битовая глубина : 8 бит
Тип развёртки : Прогрессивная
Метод сжатия : С потерями
Бит/(Пиксели*Кадры) : 0.170
Размер потока : 328 Мбайт (88%)
Библиотека кодирования : XviD 73

Аудио
Идентификатор : 1
Формат : MPEG Audio
Версия формата : Version 1
Профиль формата : Layer 3
Идентификатор кодека : 55
Идентификатор кодека/Подсказка : MP3
Продолжительность : 44 м.
Вид битрейта : Постоянный
Битрейт : 128 Кбит/сек
Каналы : 2 канала
Частота : 48,0 КГц
Метод сжатия : С потерями
Размер потока : 41,0 Мбайт (11%)
Выравнивание : Соединение по промежуткам
Продолжительность промежутка : 40 мс. (1,00 видеокадр)
Время предзагрузки промежутка : 504 мс.
Библиотека кодирования : LAME3.99r
Настройки программы : -m s -V 4 -q 0 -lowpass 17 -b 128




   
Торрент: Зарегистрирован [Февраль 6, 2016, 3:17 pm]
Сериалы Скачать торрент Магнет ссылка Смотреть онлайн
Скачать торрент
[ Размер 16.23 КБ / Просмотров 19 ]
Статус:
Проверен
---
.torrent скачан: 3257 раз
Приватный: Нет (DHT включён)
Размер: 5.81 ГБ (6 237 974 528)
   
Аватара пользователя
sergey
 
Раздал: 42.54 ТБ
Скачал: 198.69 ГБ
Ратио: 265.234
Сообщения: 5338
Зарегистрирован: Август 6, 2012, 2:11 pm
Откуда: СССР

Флаг страны: СССР

  • Похожие торренты
    Ответы
    Просмотры
    Последнее сообщение

Вернуться в Сериалы



Кто сейчас на конференции

Сейчас эту тему просматривают: нет зарегистрированных пользователей и гости: 1

Ресурс не содержит никакой другой информации, кроме описаний отдельных файлов или их групп, имеющихся у некоторых пользователей данного ресурса. Подтверждением наличия данных файлов у пользователя может иногда являться специальный набор значений, представляющих собой результаты применения односторонних хеш-функций к этим файлам или их группам. Данные наборы значений объединяются пользователями в единое целое и могут быть выложены ими вместе с описаниями имеющихся у них файлов. Администрация данного ресурса не имеет физической возможности убедиться, что описания файлов, выложенные нашими пользователями, равно как и созданные ими наборы хешей от файлов, соответствуют реальным файлам имеющимся у пользователей, а не созданы каким-либо иным способом.
cron
Яндекс.Метрика