Мафия: Игра на выживание (2015) WEB-DL 720p

Фильмы в формате WEBRip/Avi и т.д.

Оценка торрента

5
0
Голосов нет
4
0
Голосов нет
3
0
Голосов нет
2
0
Голосов нет
1
0
Голосов нет
 
Всего голосов : 0

 Статистика раздачи 
Размер: 2.81 ГБ   |  Зарегистрирован: Февраль 12, 2016, 7:55 am   |   .torrent скачан: 20282 раз
Сидеров: 2780  [ 0 байт/сек ]   Личеров: 322  [ 0 байт/сек ]  

Мафия: Игра на выживание (2015) WEB-DL 720p

Сообщение sergey » Февраль 12, 2016, 7:55 am

Информация о фильме
Название: Мафия: Игра на выживание
Оригинальное название: Мафия: Игра на выживание
Год выхода: 2015
Жанр: фантастика, боевик
Режиссер: Сарик Андреасян
В ролях: Виктор Вержбицкий, Вениамин Смехов, Юрий Чурсин, Вячеслав Разбегаев, Ольга Тумайкина, Андрей Чадов, Вадим Цаллати, Виолетта Гетманская, Наталья Рудова, Евгений Коряковский
О фильме:
Москва. Далекое будущее. Карточная игра МАФИЯ стала самым популярным в мире телешоу. Одиннадцать человек соберутся за столом, чтобы выяснить — кто из них Мирный Житель, а кто безжалостная МАФИЯ. На глазах всего мира готовится коктейль из эмоций и чувств: хитрости, страха, лжи, ненависти, презрения, боли, гордости, страсти, любви и смерти. Ведь выигравший в схватке получит огромный денежный приз, а проигравший просто умрет…


Выпущено: Россия
Продолжительность: 01:30:40
Озвучивание: Оригинал [iTunes]

Файл
Формат: MKV
Качество: WEB-DL 720p
Видео: MPEG-4 AVC, 3964 kb/s, 1280x530
Аудио: AC3, 384 kb/s (6 ch)

Format : Matroska
Format version : Version 2
File size : 2.81 GiB
Duration : 1h 30mn
Overall bit rate : 4 436 Kbps
Movie name : Mafia: Survival Game (2016) - Release for HDCLUB
Encoded date : UTC 2016-02-11 21:51:15
Writing application : mkvmerge v3.4.0 ('Rapunzel') built on May 15 2010 09:38:20
Writing library : libebml v0.8.0 + libmatroska v0.9.0

Video
ID : 1
Format : AVC
Format/Info : Advanced Video Codec
Format profile : Main@L3.1
Format settings, CABAC : No
Format settings, ReFrames : 2 frames
Codec ID : V_MPEG4/ISO/AVC
Duration : 1h 30mn
Bit rate : 3 964 Kbps
Width : 1 280 pixels
Height : 530 pixels
Display aspect ratio : 2.40:1
Frame rate mode : Constant
Frame rate : 24.000 fps
Color space : YUV
Chroma subsampling : 4:2:0
Bit depth : 8 bits
Scan type : Progressive
Bits/(Pixel*Frame) : 0.243
Stream size : 2.51 GiB (89%)
Title : Mafia: Survival Game (2016) - Release for HDCLUB
Language : Russian
Default : Yes
Forced : No
Color range : Limited
Color primaries : BT.709
Transfer characteristics : BT.709
Matrix coefficients : BT.709

Audio
ID : 2
Format : AC-3
Format/Info : Audio Coding 3
Mode extension : CM (complete main)
Format settings, Endianness : Big
Codec ID : A_AC3
Duration : 1h 30mn
Bit rate mode : Constant
Bit rate : 384 Kbps
Channel(s) : 6 channels
Channel positions : Front: L C R, Side: L R, LFE
Sampling rate : 48.0 KHz
Bit depth : 16 bits
Compression mode : Lossy
Stream size : 249 MiB (9%)
Title : AC3 5.1 @ 384 kbps
Language : Russian
Default : Yes
Forced : No

Menu
00:00:00.000 : ru:1
00:02:59.000 : ru:2
00:11:45.000 : ru:3
00:22:40.000 : ru:4
00:27:39.000 : ru:5
00:36:05.000 : ru:6
00:43:30.000 : ru:7
00:54:40.000 : ru:8
01:05:18.000 : ru:9
01:13:28.000 : ru:10
01:20:43.000 : ru:11
01:26:33.000 : ru:12









   
Торрент: Зарегистрирован [Февраль 12, 2016, 7:55 am]
Видео WEBRip Скачать торрент Магнет ссылка Смотреть онлайн
Скачать торрент
[ Размер 14.92 КБ / Просмотров 15 ]
Статус:
Проверен
---
.torrent скачан: 20282 раз
Приватный: Нет (DHT включён)
Размер: 2.81 ГБ (3 016 717 789)
   
Аватара пользователя
sergey
 
Раздал: 42.54 ТБ
Скачал: 198.69 ГБ
Ратио: 265.234
Сообщения: 5349
Зарегистрирован: Август 6, 2012, 2:11 pm
Откуда: СССР

Флаг страны: СССР

  • Похожие торренты
    Ответы
    Просмотры
    Последнее сообщение

Вернуться в Видео WEBRip



Кто сейчас на конференции

Сейчас эту тему просматривают: нет зарегистрированных пользователей и гости: 1

Ресурс не содержит никакой другой информации, кроме описаний отдельных файлов или их групп, имеющихся у некоторых пользователей данного ресурса. Подтверждением наличия данных файлов у пользователя может иногда являться специальный набор значений, представляющих собой результаты применения односторонних хеш-функций к этим файлам или их группам. Данные наборы значений объединяются пользователями в единое целое и могут быть выложены ими вместе с описаниями имеющихся у них файлов. Администрация данного ресурса не имеет физической возможности убедиться, что описания файлов, выложенные нашими пользователями, равно как и созданные ими наборы хешей от файлов, соответствуют реальным файлам имеющимся у пользователей, а не созданы каким-либо иным способом.
cron
Яндекс.Метрика