Человек без прошлого [01-16 из 16] (2014) HDTVRip

Отечественные и зарубежные сериалы

Оценка торрента

5
0
Голосов нет
4
0
Голосов нет
3
0
Голосов нет
2
0
Голосов нет
1
0
Голосов нет
 
Всего голосов : 0

 Статистика раздачи 
Размер: 4.34 ГБ   |  Зарегистрирован: Февраль 20, 2016, 11:18 am   |   .torrent скачан: 6208 раз
Сидеров: 1522  [ 0 байт/сек ]   Личеров: 437  [ 0 байт/сек ]  

Человек без прошлого [01-16 из 16] (2014) HDTVRip

Сообщение sergey » Февраль 20, 2016, 11:18 am

Информация о фильме
Название: Человек без прошлого
Год выхода: 2014
Жанр: Криминал, детектив
Режиссер: Эмилис Веливис
В ролях: Михаил Евланов, Дмитрий Лавров (III), Юрий Цурило, Роман Мадянов, Игорь Арташонов, Андрей Финягин, Светлана Устинова, Анна Попова, Евгений Атарик, Иван Шмаков, Александр Кузнецов, Юрий Архангельский, Юлия Такшина, Геннадий Венгеров

О фильме: Игорь Романов и Павел Грошев когда-то давно были друзьями, а сейчас оказались по разные стороны баррикад. Романов работает на крупного наркоторговца, а Грошев – опер в Госнаркоконтроле. Случайная встреча оказывается для обоих роковой. Грошев срывает Романову криминальную сделку на три миллионов долларов, но взять бывшего друга с поличным ему не удаётся. В итоге, наркотики и деньги бесследно пропадают, а Романов, тяжело раненный в голову, полностью теряет память. Наркоторговцы подозревают Романова в том, что это он украл наркотики и деньги. Грошева отстраняют от службы и обвиняют в превышении полномочий и попытке убить бывшего друга. Куда делся груз и деньги? Кто хочет убить Романова? И на кого он на самом деле работает? Бывшим друзьям, оказавшимся вне закона, приходится объединить усилия, чтобы ответить на эти вопросы.

Выпущено: Россия, Кинокомпания Платформа Кино по заказу НТВ
Продолжительность: 16 x ~ 00:44:00
Перевод: Не требуется

Файл
Качество: HDTVRip
Видео: XviD, ~ 750 Кбит/с, 656х368
Аудио: MP3, 2 ch, 128 Кбит/с

Полное имя : Chelovek.Bez.Proshlogo.2014.XviD.HDTVRip.by.GeneralFilmSerija.01.avi
Формат : AVI
Формат/Информация : Audio Video Interleave
Размер файла : 278 Мбайт
Продолжительность : 44 м.
Общий поток : 882 Кбит/сек
Программа кодирования : VirtualDubMod 1.5.10.3 | http://www.virtualdub-fr.org || (build 2550/release)
Библиотека кодирования : VirtualDubMod build 2550/release

Видео
Идентификатор : 0
Формат : MPEG-4 Visual
Профиль формата : Advanced Simple@L5
Параметр BVOP формата : 1
Параметр QPel формата : Нет
Параметр GMC формата : Без точки перехода
Параметр матрицы формата : Выборочная
Идентификатор кодека : XVID
Идентификатор кодека/Подсказка : XviD
Продолжительность : 44 м.
Битрейт : 744 Кбит/сек
Ширина : 656 пикселей
Высота : 368 пикселей
Соотношение сторон : 16:9
Частота кадров : 25,000 кадров/сек
Цветовое пространство : YUV
Субдискретизация насыщенности : 4:2:0
Битовая глубина : 8 бит
Тип развёртки : Прогрессивная
Метод сжатия : С потерями
Бит/(Пиксели*Кадры) : 0.123
Размер потока : 235 Мбайт (84%)
Библиотека кодирования : XviD 73

Аудио
Идентификатор : 1
Формат : MPEG Audio
Версия формата : Version 1
Профиль формата : Layer 3
Идентификатор кодека : 55
Идентификатор кодека/Подсказка : MP3
Продолжительность : 44 м.
Вид битрейта : Постоянный
Битрейт : 128 Кбит/сек
Каналы : 2 канала
Частота : 48,0 КГц
Метод сжатия : С потерями
Размер потока : 40,4 Мбайт (15%)
Выравнивание : Соединение по промежуткам
Продолжительность промежутка : 40 мс. (1,00 видеокадр)
Время предзагрузки промежутка : 504 мс.
Библиотека кодирования : LAME3.99r
Настройки программы : -m s -V 4 -q 0 -lowpass 17 -b 128







   
Торрент: Зарегистрирован [Февраль 20, 2016, 11:18 am]
Сериалы Скачать торрент Магнет ссылка Смотреть онлайн
Скачать торрент
[ Размер 12.57 КБ / Просмотров 15 ]
Статус:
Проверен
---
.torrent скачан: 6208 раз
Приватный: Нет (DHT включён)
Размер: 4.34 ГБ (4 657 479 680)
   
Аватара пользователя
sergey
 
Раздал: 42.54 ТБ
Скачал: 198.69 ГБ
Ратио: 265.234
Сообщения: 5348
Зарегистрирован: Август 6, 2012, 2:11 pm
Откуда: СССР

Флаг страны: СССР

  • Похожие торренты
    Ответы
    Просмотры
    Последнее сообщение

Вернуться в Сериалы



Кто сейчас на конференции

Сейчас эту тему просматривают: нет зарегистрированных пользователей и гости: 1

Ресурс не содержит никакой другой информации, кроме описаний отдельных файлов или их групп, имеющихся у некоторых пользователей данного ресурса. Подтверждением наличия данных файлов у пользователя может иногда являться специальный набор значений, представляющих собой результаты применения односторонних хеш-функций к этим файлам или их группам. Данные наборы значений объединяются пользователями в единое целое и могут быть выложены ими вместе с описаниями имеющихся у них файлов. Администрация данного ресурса не имеет физической возможности убедиться, что описания файлов, выложенные нашими пользователями, равно как и созданные ими наборы хешей от файлов, соответствуют реальным файлам имеющимся у пользователей, а не созданы каким-либо иным способом.
cron
Яндекс.Метрика