Элвин и бурундуки: Грандиозное бурундуключение / Alvin and the Chipmunks: The Road Chip (2015) HDRip [Звук с TS]

Мультфильмы

Оценка торрента

5
0
Голосов нет
4
0
Голосов нет
3
0
Голосов нет
2
0
Голосов нет
1
0
Голосов нет
 
Всего голосов : 0

 Статистика раздачи 
Размер: 1.37 ГБ   |  Зарегистрирован: Март 3, 2016, 10:43 am   |   .torrent скачан: 1 раз
Сидеров: 17  [ 0 байт/сек ]   Личеров: 0  [ 0 байт/сек ]  

Элвин и бурундуки: Грандиозное бурундуключение / Alvin and the Chipmunks: The Road Chip (2015) HDRip [Звук с TS]

Сообщение sergey » Март 3, 2016, 10:43 am

Элвин и бурундуки: Грандиозное бурундуключение / Alvin and the Chipmunks: The Road Chip (2015) HDRip
Производство: США
Жанр: Мультфильм, фэнтези, комедия, приключения, семейный, музыка

Режиссер: Уолт Бекер
Продюсер: Дженис Карман, Росс Багдасарян мл., Дэвид МакКимми
Актеры: Джейсон Ли, Джастин Лонг, Мэттью Грей Гублер, Джесси МакКартни, Кимберли Уильямс, Джош Грин, Тони Хейл, Белла Торн, Эдди Стиплз, Кристина Эпплгейт

Описание:
Бурундуки пойдут на всё, чтобы сохранить свою семью, даже на грандиозное бурундуключение по всей Америке!
Когда Бурундуки видят, что Дэйв берет с собой коробочку с кольцом в поездку в Майами, они отчаянно пытаются помешать ему сделать предложение его девушке — из опасения, что мачеха и сводный брат внесут перемены в их семейную идиллию. Но после того, как их помещают в черный список за хулиганское поведение в самолете, Элвин, Саймон, Теодор и их будущий брат Майлз отправляются в самое важное путешествие в их жизни через всю страну, чтобы успеть помешать помолвке.


Возраст: 6+ (зрителям, достигшим 6 лет)
Рейтинг MPAA: PG (рекомендуется присутствие родителей)
Дата мировой премьеры: 6 декабря 2015
Дата премьеры в России: 14 января 2016, «Двадцатый Век Фокс СНГ»

Продолжительность: 01:32:00
Качество видео: HDRip
Перевод: Дублированный (Звук с TS)
Реклама: Присутствуют голосовые вставки.

Видео: XviD, 720x384 , ~1734 kbps
Аудио: AC-3, 2 ch, 384 kbps
Код:
Код: Выделить всё
 Общее
Полное имя                               : N:\Элвин и бурундуки Грандиозное бурундуключение (2015).HDRip.avi
Формат                                   : AVI
Формат/Информация                        : Audio Video Interleave
Размер файла                             : 1,37 Гбайт
Продолжительность                        : 1 ч. 32 м.
Общий поток                              : 2127 Кбит/сек
Программа кодирования                    : VirtualDubMod 1.5.10.2 (build 2540/release)
Библиотека кодирования                   : VirtualDubMod build 2540/release

Видео
Идентификатор                            : 0
Формат                                   : MPEG-4 Visual
Профиль формата                          : Advanced Simple@L5
Параметр BVOP формата                    : 2
Параметр QPel формата                    : Нет
Параметр GMC формата                     : Без точки перехода
Параметр матрицы формата                 : Default (MPEG)
Идентификатор кодека                     : XVID
Идентификатор кодека/Подсказка           : XviD
Продолжительность                        : 1 ч. 32 м.
Битрейт                                  : 1734 Кбит/сек
Ширина                                   : 720 пикселей
Высота                                   : 384 пикселя
Соотношение сторон                       : 1,85:1
Частота кадров                           : 23,976 (24000/1001) кадра/сек
Цветовое пространство                    : YUV
Субдискретизация насыщенности            : 4:2:0
Битовая глубина                          : 8 бит
Тип развёртки                            : Прогрессивная
Метод сжатия                             : С потерями
Бит/(Пиксели*Кадры)                      : 0.262
Размер потока                            : 1,11 Гбайт (82%)
Библиотека кодирования                   : XviD 1.2.1 (UTC 2008-12-04)

Аудио
Идентификатор                            : 1
Формат                                   : AC-3
Формат/Информация                        : Audio Coding 3
Расширение режима                        : CM (complete main)
Параметр Endianness формата              : Big
Идентификатор кодека                     : 2000
Продолжительность                        : 1 ч. 32 м.
Вид битрейта                             : Постоянный
Битрейт                                  : 384 Кбит/сек
Каналы                                   : 2 канала
Расположение каналов                     : Front: L R
Частота                                  : 48,0 КГц
Частота кадров                           : 31,250 кадров/сек (1536 spf)
Метод сжатия                             : С потерями
Размер потока                            : 253 Мбайт (18%)
Выравнивание                             : Разделение по промежуткам
Продолжительность промежутка             : 42  мс. (1,00 видеокадр)
Время предзагрузки промежутка            : 500  мс.
 

Скриншоты:

   
Торрент: Зарегистрирован [Март 3, 2016, 10:43 am]
Мультфильмы Скачать торрент Магнет ссылка Смотреть онлайн
Скачать торрент
[ Размер 14.67 КБ / Просмотров 24 ]
Статус:
Проверен
---
.torrent скачан: 1 раз
Приватный: Нет (DHT включён)
Размер: 1.37 ГБ (1 467 754 496)
   
Аватара пользователя
sergey
 
Раздал: 42.54 ТБ
Скачал: 198.69 ГБ
Ратио: 265.234
Сообщения: 5338
Зарегистрирован: Август 6, 2012, 2:11 pm
Откуда: СССР

Флаг страны: СССР

Вернуться в Мультфильмы



Кто сейчас на конференции

Сейчас эту тему просматривают: нет зарегистрированных пользователей и гости: 1

Ресурс не содержит никакой другой информации, кроме описаний отдельных файлов или их групп, имеющихся у некоторых пользователей данного ресурса. Подтверждением наличия данных файлов у пользователя может иногда являться специальный набор значений, представляющих собой результаты применения односторонних хеш-функций к этим файлам или их группам. Данные наборы значений объединяются пользователями в единое целое и могут быть выложены ими вместе с описаниями имеющихся у них файлов. Администрация данного ресурса не имеет физической возможности убедиться, что описания файлов, выложенные нашими пользователями, равно как и созданные ими наборы хешей от файлов, соответствуют реальным файлам имеющимся у пользователей, а не созданы каким-либо иным способом.
cron
Яндекс.Метрика