Ложь во спасение / Серии: 1-4 из 4 [2015 SATRip-AVC]

Отечественные и зарубежные сериалы

Оценка торрента

5
0
Голосов нет
4
0
Голосов нет
3
0
Голосов нет
2
0
Голосов нет
1
0
Голосов нет
 
Всего голосов : 0

 Статистика раздачи 
Размер: 2.33 ГБ   |  Зарегистрирован: Апрель 10, 2016, 7:25 am   |   .torrent скачан: 2 раз
Сидеров: 1  [ 0 байт/сек ]   Личеров: 3  [ 0 байт/сек ]  

Ложь во спасение / Серии: 1-4 из 4 [2015 SATRip-AVC]

Сообщение sergey » Апрель 10, 2016, 7:25 am

Ложь во спасение


Год выпуска: 2015
Производство: Россия, «Телемастер»,Студия "Простофильм"
Жанр: мелодрама
Длительность: 00:44:00
Субтитры: нет


Режиссёр: Андрей Верещагин

В ролях: Владимир Жеребцов, Анастасия Панина, Любава Грешнова, Елизавета Лотова, Александр Наумов, Василиса Немцова, Эдуард Айткулов, Алексей Тихонов, Олег Каменщиков, Алексей Матошин, Пётр Рыков

Описание: У следователя Олега Субботина есть любимая жена, двое детишек, уютный дом. Кажется, что под всем этим благополучием – крепкий фундамент на века. Может быть, именно поэтому Олег больше внимания отдаёт работе – а когда выясняется, что следствию может быть полезен бывший муж Ирины, без колебаний помогает ему выйти на свободу по УДО. С этого момента жизнь Субботиных летит под откос...



Качество: SATRip-AVC
Формат: MKV
Видео кодек: H.264
Аудио кодек: AC3
Видео: MPEG-4 AVC, 720х400,25fps,~1700 Кбит/сек,Bits/Pixel 0.236
Аудио: AC3, 48 kHz, ~192 Kbps, 2 канала

Общее
Уникальный идентификатор : 236255466724800835725816315937009164715 (0xB1BD25D580C633CABC9FD328FBFFE1AB)
Полное имя : G:\Ложь во спасение\Ложь во спасение_01 серия rip by_Aleksan55.mkv
Формат : Matroska
Версия формата : Version 2
Размер файла : 601 Мбайт
Длительность : 44 м.
Общий поток : 1894 Кбит/сек
Дата кодирования : UTC 2016-04-09 11:21:34
Программа кодирования : mkvmerge v7.8.0 ('River Man') 32bit built on Apr 3 2015 12:11:22
Библиотека кодирования : libebml v1.3.1 + libmatroska v1.4.2
Видео
Идентификатор : 1
Формат : AVC
Формат/Информация : Advanced Video Кодек
Профиль формата : High@L4.1
Параметр CABAC формата : Да
Параметр ReFrames формата : 12 кадров
Идентификатор кодека : V_MPEG4/ISO/AVC
Длительность : 44 м.
Битрейт : 1700 Кбит/сек
Ширина : 720 пикселей
Высота : 400 пикселей
Соотношение сторон : 16:9
Режим частоты кадров : Постоянный
Частота кадров : 25,000 кадров/сек
Цветовое пространство : YUV
Субдискретизация насыщенности : 4:2:0
Битовая глубина : 8 бит
Тип развёртки : Прогрессивная
Бит/(Пиксели*Кадры) : 0.236
Размер потока : 528 Мбайт (88%)
Библиотека кодирования : x264 core 146 r2538 121396c
Настройки программы : cabac=1 / ref=12 / deblock=1:-2:-2 / analyse=0x3:0x103 / me=umh / subme=9 / psy=1 / psy_rd=1.00:0.25 / mixed_ref=0 / me_range=32 / chroma_me=1 / trellis=2 / 8x8dct=1 / cqm=0 / deadzone=6,6 / fast_pskip=1 / chroma_qp_offset=-4 / threads=2 / lookahead_threads=1 / sliced_threads=0 / nr=0 / decimate=0 / interlaced=0 / bluray_compat=0 / constrained_intra=0 / bframes=12 / b_pyramid=2 / b_adapt=1 / b_bias=0 / direct=3 / weightb=1 / open_gop=0 / weightp=2 / keyint=250 / keyint_min=25 / scenecut=40 / intra_refresh=0 / rc_lookahead=40 / rc=2pass / mbtree=1 / bitrate=1700 / ratetol=1.0 / qcomp=0.80 / qpmin=0 / qpmax=69 / qpstep=4 / cplxblur=20.0 / qblur=0.5 / ip_ratio=1.10 / aq=1:1.00
Default : Да
Forced : Нет
Цветовой диапазон : Limited
Основные цвета : BT.601 PAL
Характеристики трансфера : BT.470 System B, BT.470 System G
Коэффициенты матрицы : BT.601
Аудио
Идентификатор : 2
Формат : AC-3
Формат/Информация : Audio Coding 3
Расширение режима : CM (complete main)
Параметр Endianness формата : Big
Идентификатор кодека : A_AC3
Длительность : 44 м.
Вид битрейта : Постоянный
Битрейт : 192 Кбит/сек
Каналы : 2 канала
Расположение каналов : Front: L R
Частота : 48,0 КГц
Метод сжатия : С потерями
Размер потока : 60,9 Мбайт (10%)
Default : Да
Forced : Нет
   
Торрент: Зарегистрирован [Апрель 10, 2016, 7:25 am]
Сериалы Скачать торрент Магнет ссылка Смотреть онлайн
Скачать торрент
[ Размер 12.43 КБ / Просмотров 4 ]
Статус:
Проверен
---
.torrent скачан: 2 раз
Приватный: Нет (DHT включён)
Размер: 2.33 ГБ (2 504 098 007)
   
Аватара пользователя
sergey
 
Раздал: 42.54 ТБ
Скачал: 198.69 ГБ
Ратио: 265.263
Сообщения: 5358
Зарегистрирован: Август 6, 2012, 2:11 pm
Откуда: СССР

Флаг страны: СССР

  • Похожие торренты
    Ответы
    Просмотры
    Последнее сообщение

Вернуться в Сериалы



Кто сейчас на конференции

Сейчас эту тему просматривают: нет зарегистрированных пользователей и гости: 1

Ресурс не содержит никакой другой информации, кроме описаний отдельных файлов или их групп, имеющихся у некоторых пользователей данного ресурса. Подтверждением наличия данных файлов у пользователя может иногда являться специальный набор значений, представляющих собой результаты применения односторонних хеш-функций к этим файлам или их группам. Данные наборы значений объединяются пользователями в единое целое и могут быть выложены ими вместе с описаниями имеющихся у них файлов. Администрация данного ресурса не имеет физической возможности убедиться, что описания файлов, выложенные нашими пользователями, равно как и созданные ими наборы хешей от файлов, соответствуют реальным файлам имеющимся у пользователей, а не созданы каким-либо иным способом.
cron
Яндекс.Метрика