Тронутые / The Road Within (2014) HDRip-AVC | iTunes

Фильмы в формате DVD

Оценка торрента

1
0
Голосов нет
2
0
Голосов нет
3
0
Голосов нет
4
0
Голосов нет
5
0
Голосов нет
 
Всего голосов : 0

 Статистика раздачи 
Размер: 2.17 ГБ   |  Зарегистрирован: Апрель 22, 2016, 1:19 pm   |   .torrent скачан: 4348 раз
Сидеров: 1131  [ 0 байт/сек ]   Личеров: 266  [ 0 байт/сек ]  

Тронутые / The Road Within (2014) HDRip-AVC | iTunes

Сообщение sergey » Апрель 22, 2016, 1:19 pm

Информация о фильме
Название: Тронутые / Внутренняя дорога
Оригинальное название: The Road Within
Год выпуска: 2014
Страна: США
Жанр: драма, комедия
Перевод: Дубляж - [iTunes]
Субтитры: английские (Full-length), русские - скачать отдельно (жмите) присутствует ненормативная лексика
Продолжительность: 01:40:57
Режиссер: Грен Уэллс
В ролях: Роберт Шиэн (Vincent), Дев Патель (Alex), Зои Кравиц (Marie), Роберт Патрик (Robert), Кира Седжвик (Dr. Mia Rose), Али Хиллис (Monica), Мэтт Риди (Cop), Росс Галло (Therapist), Джо Ангер, Купер Рот (Boy), Эрик Мэзени (Matt), Луиса Кендрик (Nurse)

Описание:
Винсент, Мари и Алекс - сумасшедшая троица... В прямом смысле. У всех троих по куче тараканов в голове и так периодически сносит крышу, что их богатенькие родители не долго думая определили своих детишек в психушку, откуда они и дали дёру.
На пути к океану, куда они решили отправиться, происходит множество как забавных так и драматических событий. Путешествие, где они сталкиваются с такими живыми человеческими чувствами, как влюблённость, дружба, ненависть, соперничество, становится способом глобально изменить друг друга и мир вокруг.
Рейтинг:

MPAA: R - Лицам до 17 лет обязательно присутствие взрослого
Качество: HDRip-AVC
Формат: MKV
Видео: AVC, 1024x554 (16:9), 2248 kbps, 24 fps, 0,165 bpp
Аудио №1: русский / AC3 / 5.1 / 48 kHz / 384 kbps / 16 bit |Дубляж, iTunes|
Аудио №2: английский / AC3 / 5.1 / 48 kHz / 448 kbps / 16 bit
Навигация по главам: есть
Семпл



General
Unique ID : 235707429286862892271501796628339859764 (0xB15399808D86B3CDB633110C6C0BA134)
Complete name : H:The.Road.Within.2014. HDRip-AVC.by.R.G.Resident.mkv
Format : Matroska
Format version : Version 4 / Version 2
File size : 2.17 GiB
Duration : 1h 40mn
Overall bit rate : 3 081 Kbps
Movie name : The Road Within (2014) HDRip-AVC by R.G. Resident
Encoded date : UTC 2016-04-21 12:21:31
Writing application : mkvmerge v9.0.1 ('Obstacles') 64bit
Writing library : libebml v1.3.3 + libmatroska v1.4.4
DURATION : 01:40:57.600000000
NUMBER_OF_FRAMES : 189300
NUMBER_OF_BYTES : 339225600
_STATISTICS_WRITING_APP : mkvmerge v9.0.1 ('Obstacles') 64bit
_STATISTICS_WRITING_DATE_UTC : 2016-04-21 12:21:31
_STATISTICS_TAGS : BPS DURATION NUMBER_OF_FRAMES NUMBER_OF_BYTES

Video
ID : 1
Format : AVC
Format/Info : Advanced Video Codec
Format profile : High@L4.1
Format settings, CABAC : Yes
Format settings, ReFrames : 9 frames
Codec ID : V_MPEG4/ISO/AVC
Duration : 1h 40mn
Bit rate : 2 248 Kbps
Width : 1 024 pixels
Height : 554 pixels
Display aspect ratio : 16:9
Frame rate : 24.000 fps
Color space : YUV
Chroma subsampling : 4:2:0
Bit depth : 8 bits
Scan type : Progressive
Bits/(Pixel*Frame) : 0.165
Stream size : 1.54 GiB (71%)
Title : -Lexx-
Writing library : x264 core 146 r2538 121396c
Encoding settings : cabac=1 / ref=9 / deblock=1:-2:-2 / analyse=0x3:0x113 / me=umh / subme=11 / psy=1 / psy_rd=1.00:0.10 / mixed_ref=1 / me_range=48 / chroma_me=1 / trellis=2 / 8x8dct=1 / cqm=0 / deadzone=21,11 / fast_pskip=0 / chroma_qp_offset=-3 / threads=6 / lookahead_threads=2 / sliced_threads=0 / nr=0 / decimate=1 / interlaced=0 / bluray_compat=0 / constrained_intra=0 / bframes=10 / b_pyramid=2 / b_adapt=2 / b_bias=0 / direct=3 / weightb=1 / open_gop=0 / weightp=2 / keyint=240 / keyint_min=24 / scenecut=40 / intra_refresh=0 / rc=2pass / mbtree=0 / bitrate=2248 / ratetol=1.0 / qcomp=0.60 / qpmin=0 / qpmax=69 / qpstep=4 / cplxblur=20.0 / qblur=0.5 / ip_ratio=1.40 / pb_ratio=1.30 / aq=1:1.00
Language : English
Default : Yes
Forced : No
DURATION : 01:40:57.547000000
NUMBER_OF_FRAMES : 145381
NUMBER_OF_BYTES : 1701760590
_STATISTICS_WRITING_APP : mkvmerge v9.0.1 ('Obstacles') 64bit
_STATISTICS_WRITING_DATE_UTC : 2016-04-21 12:21:31
_STATISTICS_TAGS : BPS DURATION NUMBER_OF_FRAMES NUMBER_OF_BYTES

Audio #1
ID : 2
Format : AC-3
Format/Info : Audio Coding 3
Mode extension : CM (complete main)
Codec ID : A_AC3
Duration : 1h 40mn
Bit rate mode : Constant
Bit rate : 384 Kbps
Channel(s) : 6 channels
Channel positions : Front: L C R, Side: L R, LFE
Sampling rate : 48.0 KHz
Bit depth : 16 bits
Compression mode : Lossy
Stream size : 277 MiB (12%)
Title : Дубляж -iTunes
Language : Russian
Default : Yes
Forced : No

Audio #2
ID : 3
Format : AC-3
Format/Info : Audio Coding 3
Mode extension : CM (complete main)
Codec ID : A_AC3
Duration : 1h 40mn
Bit rate mode : Constant
Bit rate : 448 Kbps
Channel(s) : 6 channels
Channel positions : Front: L C R, Side: L R, LFE
Sampling rate : 48.0 KHz
Bit depth : 16 bits
Compression mode : Lossy
Stream size : 324 MiB (15%)
Title : Оригинал
Language : English
Default : No
Forced : No

Text
ID : 4
Format : UTF-8
Codec ID : S_TEXT/UTF8
Codec ID/Info : UTF-8 Plain Text
Title : Full-length
Language : English
Default : No
Forced : No

Menu
00:00:00.000 : en:1
00:06:42.000 : en:2
00:12:24.000 : en:3
00:19:10.000 : en:4
00:24:54.000 : en:5
00:30:46.000 : en:6
00:35:45.000 : en:7
00:41:25.000 : en:8
00:46:57.000 : en:9
00:52:49.000 : en:10
00:57:53.000 : en:11
01:03:23.000 : en:12
01:13:47.000 : en:13
01:21:11.000 : en:14
01:36:55.000 : en:15
   
Торрент: Зарегистрирован [Апрель 22, 2016, 1:19 pm]
Видео DVD Скачать торрент Магнет ссылка Смотреть онлайн
Скачать торрент
[ Размер 11.63 КБ / Просмотров 27 ]
Статус:
Проверен
---
.torrent скачан: 4348 раз
Приватный: Нет (DHT включён)
Размер: 2.17 ГБ (2 333 202 682)
   
Аватара пользователя
sergey
 
Раздал: 42.54 ТБ
Скачал: 198.69 ГБ
Ратио: 265.234
Сообщения: 5347
Зарегистрирован: Август 6, 2012, 2:11 pm
Откуда: СССР

Флаг страны: СССР

  • Похожие торренты
    Ответы
    Просмотры
    Последнее сообщение

Вернуться в Видео DVD



Кто сейчас на конференции

Сейчас эту тему просматривают: нет зарегистрированных пользователей и гости: 1

Ресурс не содержит никакой другой информации, кроме описаний отдельных файлов или их групп, имеющихся у некоторых пользователей данного ресурса. Подтверждением наличия данных файлов у пользователя может иногда являться специальный набор значений, представляющих собой результаты применения односторонних хеш-функций к этим файлам или их группам. Данные наборы значений объединяются пользователями в единое целое и могут быть выложены ими вместе с описаниями имеющихся у них файлов. Администрация данного ресурса не имеет физической возможности убедиться, что описания файлов, выложенные нашими пользователями, равно как и созданные ими наборы хешей от файлов, соответствуют реальным файлам имеющимся у пользователей, а не созданы каким-либо иным способом.
cron
Яндекс.Метрика