Клянусь тобой, любимая / Sanam Teri Kasam (2016) WEB-DLRip [H.264/720p-LQ]

Фильмы в формате WEBRip/Avi и т.д.

Оценка торрента

5
0
Голосов нет
4
0
Голосов нет
3
0
Голосов нет
2
0
Голосов нет
1
0
Голосов нет
 
Всего голосов : 0

 Статистика раздачи 
Размер: 3 ГБ   |  Зарегистрирован: Май 3, 2016, 8:49 am   |   .torrent скачан: 0 раз
Сидеров: 0  [ 0 байт/сек ]   Личеров: 0  [ 0 байт/сек ]  

Клянусь тобой, любимая / Sanam Teri Kasam (2016) WEB-DLRip [H.264/720p-LQ]

Сообщение sergey » Май 3, 2016, 8:49 am

Клянусь тобой, любимая / Sanam Teri Kasam (2016) WEB-DLRip [H.264/720p-LQ]
Производство: Индия / Jhoom Jhoom Productions, Soham Rockstar Entertainment
Жанр: Мелодрама

Режиссер: Радхика Рао, Винэй Сапру
Актеры: Харшвардхан Ране, Мавра Хокин, Виджай Рааз, Мурли Шарма, Чарльз Коттье, Пол Бишоп, Лукас Стиббард, Патрик Уильямс, Стивен Рук, Кэти Робертсон, Кэролайн Кеннисон, Йен Мун, Карим Хаджи

Описание:
Сарасвати — простая девушка, работающая в библиотеке. О таких, как она, говорят лишь одно: книжный червь, невзрачная простушка, которой далеко до идеала красоты. Именно эта простота мешает Сарасвати выйти замуж и наконец уехать из отчего дома. Родители цепляются за любую возможность о предложениях на замужество, но отказы со стороны потенциальных женихов следуют один за другим. Младшая сестра Кавери тихонько ненавидит Сарасвати за то, что по её вине она не может первой выйти замуж за своего возлюбленного и переехать в США. Устав от упрёков со стороны своих родителей, сестры и коллег, Сарасвати наконец, решает взять свою судьбу в свои руки. Она просит помощи у своего соседа Индера, который с момента своего заселения в дом, старался всячески избегать её. После долгих уговоров девушки, Индер всё-таки соглашается помочь Сарасвати с преображением и найти своё женское счастье в лице её коллеги Абхиманью, в которого она тайно и давно влюблена…



Дата мировой премьеры: 5 февраля 2016

Продолжительность: 02:34:02
Качество видео: WEB-DLRip
Перевод: Многоголосый закадровый
Язык субтитров: Русский
Вид субтитров: Вшитые

Видео: AVC/H.264, 1280x544, ~2336 Kbps
Аудио: AC3, 6 ch, 448 Kbps
Код:
Код: Выделить всё
Complete name               : D:\My Videos\Films\My Relasres\Клянусь тобой, любимая (2016) WEB-DLRip [720p].mkv
Format                      : Matroska
Format version              : Version 4 / Version 2
File size                   : 3.00 GiB
Duration                    : 2h 34mn
Overall bit rate            : 2 785 Kbps
Encoded date                : UTC 2016-03-24 14:56:51
Writing application         : mkvmerge v8.3.0 ('Over the Horizon') 32bit
Writing library             : libebml v1.3.1 + libmatroska v1.4.2

Video
ID                          : 1
Format                      : AVC
Format/Info                 : Advanced Video Codec
Format profile              :
Format settings, CABAC      : Yes
Format settings, ReFrames   : 12 frames
Codec ID                    : V_MPEG4/ISO/AVC
Duration                    : 2h 34mn
Bit rate                    : 2 336 Kbps
Width                       : 1 280 pixels
Height                      : 544 pixels
Display aspect ratio        : 2.35:1
Frame rate mode             : Constant
Frame rate                  : 23.976 (24000/1001) fps
Color space                 : YUV
Chroma subsampling          : 4:2:0
Bit depth                   : 8 bits
Scan type                   : Progressive
Bits/(Pixel*Frame)          : 0.140
Stream size                 : 2.51 GiB (84%)
Title                       : DDR
Writing library             : x264 core 148 r2638 7599210
Encoding settings           : cabac=1 / ref=12 / deblock=1:0:0 / analyse=0x3:0x133 / me=umh / subme=9 / psy=1 / psy_rd=1.00:0.00 / mixed_ref=1 / me_range=16 / chroma_me=1 / trellis=2 / 8x8dct=1 / cqm=0 / deadzone=21,11 / fast_pskip=1 / chroma_qp_offset=-2 / threads=12 / lookahead_threads=1 / sliced_threads=0 / nr=0 / decimate=1 / interlaced=0 / bluray_compat=0 / constrained_intra=0 / bframes=3 / b_pyramid=2 / b_adapt=2 / b_bias=0 / direct=3 / weightb=1 / open_gop=0 / weightp=2 / keyint=230 / keyint_min=23 / scenecut=40 / intra_refresh=0 / rc_lookahead=60 / rc=2pass / mbtree=1 / bitrate=2336 / ratetol=1.0 / qcomp=0.60 / qpmin=0 / qpmax=69 / qpstep=4 / cplxblur=20.0 / qblur=0.5 / vbv_maxrate=62500 / vbv_bufsize=78125 / nal_hrd=none / filler=0 / ip_ratio=1.40 / aq=1:1.00
Language                    : English
Default                     : Yes
Forced                      : No
Color range                 : Limited
Color primaries             : BT.709
Transfer characteristics    : BT.709
Matrix coefficients         : BT.709

Audio
ID                          : 3
Format                      : AC-3
Format/Info                 : Audio Coding 3
Mode extension              : CM (complete main)
Format settings, Endianness : Big
Codec ID                    : A_AC3
Duration                    : 2h 34mn
Bit rate mode               : Constant
Bit rate                    : 448 Kbps
Channel(s)                  : 6 channels
Channel positions           : Front: L C R, Side: L R, LFE
Sampling rate               : 48.0 KHz
Frame rate                  : 31.250 fps (1536 spf)
Compression mode            : Lossy
Stream size                 : 494 MiB (16%)
Default                     : Yes
Forced                      : No

Text
ID                          : 2
Format                      : UTF-8
Codec ID                    : S_TEXT/UTF8
Codec ID/Info               : UTF-8 Plain Text
Duration                    : 2h 18mn
Bit rate                    : 12 bps
Count of elements           : 204
Stream size                 : 12.1 KiB (0%)
Default                     : Yes
Forced                      : No

Скриншоты:

   
Торрент: Зарегистрирован [Май 3, 2016, 8:49 am]
Видео WEBRip Скачать торрент Магнет ссылка Смотреть онлайн
Скачать торрент
[ Размер 15.77 КБ / Просмотров 5 ]
Статус:
Проверен
---
.torrent скачан: 0 раз
Приватный: Нет (DHT включён)
Размер: 3 ГБ (3 217 943 947)
   
Аватара пользователя
sergey
 
Раздал: 42.54 ТБ
Скачал: 198.69 ГБ
Ратио: 265.234
Сообщения: 5343
Зарегистрирован: Август 6, 2012, 2:11 pm
Откуда: СССР

Флаг страны: СССР

  • Похожие торренты
    Ответы
    Просмотры
    Последнее сообщение

Вернуться в Видео WEBRip



Кто сейчас на конференции

Сейчас эту тему просматривают: нет зарегистрированных пользователей и гости: 1

Ресурс не содержит никакой другой информации, кроме описаний отдельных файлов или их групп, имеющихся у некоторых пользователей данного ресурса. Подтверждением наличия данных файлов у пользователя может иногда являться специальный набор значений, представляющих собой результаты применения односторонних хеш-функций к этим файлам или их группам. Данные наборы значений объединяются пользователями в единое целое и могут быть выложены ими вместе с описаниями имеющихся у них файлов. Администрация данного ресурса не имеет физической возможности убедиться, что описания файлов, выложенные нашими пользователями, равно как и созданные ими наборы хешей от файлов, соответствуют реальным файлам имеющимся у пользователей, а не созданы каким-либо иным способом.
cron
Яндекс.Метрика