Белоснежка и Охотник 2 / The Huntsman: Winter's War (2016) TC | D

Не вошедшее ни в одну из категорий

Оценка торрента

5
0
Голосов нет
4
0
Голосов нет
3
0
Голосов нет
2
0
Голосов нет
1
0
Голосов нет
 
Всего голосов : 0

 Статистика раздачи 
Размер: 1.46 ГБ   |  Зарегистрирован: Май 11, 2016, 8:06 am   |   .torrent скачан: 12564 раз
Сидеров: 1449  [ 0 байт/сек ]   Личеров: 151  [ 0 байт/сек ]  

Белоснежка и Охотник 2 / The Huntsman: Winter's War (2016) TC | D

Сообщение sergey » Май 11, 2016, 8:06 am

Производство: США, Universal Pictures
Жанр: Фэнтези, Приключения

Режиссер: Седрик Николя-Троян
Актеры: Крис Хемсворт, Джессика Честейн, Эмили Блант, Шарлиз Терон, Сэм Клафлин, Шеридан Смит, Софи Куксон, Колин Морган, Ник Фрост, Роб Брайдон

Описание:
Когда любовь уходит, сердце прекрасной девы обращается в лед.
И даже сотни королевств не смогут сдержать поступь ее несметного воинства.
Лишь Охотник не ведает страха. Сквозь проклятый лес он идет на встречу своей судьбе.


Качество: TC
Перевод: Дублированный (Звук с CAMRip)
Продолжительность: 01:52:30
Примечание: Вшитые корейские субтитры

Видео: 720x320 (2.25:1), 23.976 fps, XviD build 73 ~1671 kbps avg, 0.30 bit/pixel
Аудио: 48 kHz, AC3 Dolby Digital, 2/0 (L,R) ch, ~192 kbps
Сэмпл

Формат : AVI
Формат/Информация : Audio Video Interleave
Размер файла : 1,46 Гбайт
Продолжительность : 1 ч. 52 м.
Общий поток : 1857 Кбит/сек
Программа кодирования : VirtualDubMod 1.5.10.3 | http://www.virtualdub-fr.org || (build 2550/release)
Библиотека кодирования : VirtualDubMod build 2550/release

Видео
Идентификатор : 0
Формат : MPEG-4 Visual
Профиль формата : Advanced Simple@L5
Параметр BVOP формата : 1
Параметр QPel формата : Нет
Параметр GMC формата : Без точки перехода
Параметр матрицы формата : Выборочная
Идентификатор кодека : XVID
Идентификатор кодека/Подсказка : XviD
Продолжительность : 1 ч. 52 м.
Битрейт : 1671 Кбит/сек
Ширина : 720 пикселей
Высота : 320 пикселей
Соотношение сторон : 2,25:1
Частота кадров : 23,976 кадра/сек
Цветовое пространство : YUV
Субдискретизация насыщенности : 4:2:0
Битовая глубина : 8 бит
Тип развёртки : Прогрессивная
Метод сжатия : С потерями
Бит/(Пиксели*Кадры) : 0.303
Размер потока : 1,31 Гбайт (90%)
Библиотека кодирования : XviD 73

Аудио
Идентификатор : 1
Формат : AC-3
Формат/Информация : Audio Coding 3
Расширение режима : CM (complete main)
Параметр Endianness формата : Big
Идентификатор кодека : 2000
Продолжительность : 1 ч. 43 м.
Вид битрейта : Постоянный
Битрейт : 192 Кбит/сек
Каналы : 2 канала
Расположение каналов : Front: L R
Частота : 48,0 КГц
Битовая глубина : 16 бит
Метод сжатия : С потерями
Размер потока : 142 Мбайт (10%)
Выравнивание : Разделение по промежуткам
Продолжительность промежутка : 45 мс. (1,09 видеокадр)
Время предзагрузки промежутка : 500 мс.

Скриншоты:
   
Торрент: Зарегистрирован [Май 11, 2016, 8:06 am]
Остальное Скачать торрент Магнет ссылка
Скачать торрент
[ Размер 15.28 КБ / Просмотров 17 ]
Статус:
Проверен
---
.torrent скачан: 12564 раз
Приватный: Нет (DHT включён)
Размер: 1.46 ГБ (1 567 004 672)
   
Аватара пользователя
sergey
 
Раздал: 42.54 ТБ
Скачал: 198.69 ГБ
Ратио: 265.234
Сообщения: 5347
Зарегистрирован: Август 6, 2012, 2:11 pm
Откуда: СССР

Флаг страны: СССР

  • Похожие торренты
    Ответы
    Просмотры
    Последнее сообщение

Вернуться в Остальное



Кто сейчас на конференции

Сейчас эту тему просматривают: нет зарегистрированных пользователей и гости: 1

Ресурс не содержит никакой другой информации, кроме описаний отдельных файлов или их групп, имеющихся у некоторых пользователей данного ресурса. Подтверждением наличия данных файлов у пользователя может иногда являться специальный набор значений, представляющих собой результаты применения односторонних хеш-функций к этим файлам или их группам. Данные наборы значений объединяются пользователями в единое целое и могут быть выложены ими вместе с описаниями имеющихся у них файлов. Администрация данного ресурса не имеет физической возможности убедиться, что описания файлов, выложенные нашими пользователями, равно как и созданные ими наборы хешей от файлов, соответствуют реальным файлам имеющимся у пользователей, а не созданы каким-либо иным способом.
cron
Яндекс.Метрика