Запрос в друзья / Friend Request (2016) DVB | D

Не вошедшее ни в одну из категорий

Оценка торрента

5
0
Голосов нет
4
0
Голосов нет
3
0
Голосов нет
2
0
Голосов нет
1
0
Голосов нет
 
Всего голосов : 0

 Статистика раздачи 
Размер: 1.36 ГБ   |  Зарегистрирован: Май 18, 2016, 8:48 am   |   .torrent скачан: 45097 раз
Сидеров: 2555  [ 0 байт/сек ]   Личеров: 202  [ 0 байт/сек ]  

Запрос в друзья / Friend Request (2016) DVB | D

Сообщение sergey » Май 18, 2016, 8:48 am

Запрос в друзья / Friend Request

Страна: Германия
Производство: Seven Pictures, Wiedemann & Berg Filmproduktion
Год выпуска: 2016
Жанр: триллер
Продолжительность: 01:26:57

Режиссер: Симон Ферхоэвен
Автор сценария: Мэттью Баллен, Филип Кох, Симон Ферхоэвен

В ролях: Алисия Дебнем-Кери, Уильям Моусли, Коннор Паоло, Бритт Морган, Брук Маркам, Шон Маркетт, Лизль Алерс, Шэшони Холл

Описание: Вас добавляет в друзья одноклассник, однокурсник или коллега с работы, с которым вы практически никогда не общались, и начинает буквально атаковать вас сообщениями, почему-то решив, что вы с ним лучшие друзья. Знакомая ситуация? В подобную попадает Лора — главная героиня леденящего кровь триллера «Запрос в друзья». Решение удалить из френд-листа навязчивую и странноватую однокурсницу приведет к таким последствиям, которые не смогли бы предугадать даже самые большие любители хорроров...



Перевод: Дублированный
Субтитры: нет

Качество: DVB
Формат: АVI
Видео кодек: mpg2
Аудио кодек: МР3
Видео: 720x576@1024x576 (16:9), 25 fps, mpg2 ~2 094 kbps avg, 0.202 bit/pixel
Аудио: 44.1 kHz, MPEG Layer 3, 2 ch, ~128.00 kbps avg

Дата премьеры (мир): 7 января 2016
Дата премьеры (РФ): 17 марта 2016, «Люксор»

General
Format : AVI
Format/Info : Audio Video Interleave
Format profile : OpenDML
File size : 1.36 GiB
Duration : 1h 26mn
Overall bit rate mode : Variable
Overall bit rate : 2 236 Kbps
Writing application : Lavf56.1.100

Video
ID : 1
Format : MPEG Video
Format version : Version 2
Format profile : Main@Main
Format settings, BVOP : No
Format settings, Matrix : Default
Format settings, GOP : N=12
Codec ID : mpg2
Codec ID/Info : (MPEG-1/2) FFmpeg
Codec ID/Hint : Ffmpeg
Duration : 1h 26mn
Bit rate mode : Variable
Bit rate : 2 094 Kbps
Width : 720 pixels
Height : 576 pixels
Display aspect ratio : 16:9
Frame rate : 25.000 fps
Standard : PAL
Color space : YUV
Chroma subsampling : 4:2:0
Bit depth : 8 bits
Scan type : Progressive
Compression mode : Lossy
Bits/(Pixel*Frame) : 0.202
Stream size : 1.27 GiB (94%)

Audio
ID : 0
Format : MPEG Audio
Format version : Version 1
Format profile : Layer 3
Mode : Joint stereo
Mode extension : MS Stereo
Codec ID : 55
Codec ID/Hint : MP3
Duration : 1h 26mn
Bit rate mode : Constant
Bit rate : 128 Kbps
Channel(s) : 2 channels
Sampling rate : 44.1 KHz
Compression mode : Lossy
Stream size : 79.6 MiB (6%)
Alignment : Aligned on interleaves
Interleave, duration : 40 ms (1.00 video frame)
Writing library : LAME3.99.5

   
Торрент: Зарегистрирован [Май 18, 2016, 8:48 am]
Остальное Скачать торрент Магнет ссылка
Скачать торрент
[ Размер 14.37 КБ / Просмотров 19 ]
Статус:
Проверен
---
.torrent скачан: 45097 раз
Приватный: Нет (DHT включён)
Размер: 1.36 ГБ (1 458 179 256)
   
Аватара пользователя
sergey
 
Раздал: 42.54 ТБ
Скачал: 198.69 ГБ
Ратио: 265.234
Сообщения: 5348
Зарегистрирован: Август 6, 2012, 2:11 pm
Откуда: СССР

Флаг страны: СССР

  • Похожие торренты
    Ответы
    Просмотры
    Последнее сообщение

Вернуться в Остальное



Кто сейчас на конференции

Сейчас эту тему просматривают: нет зарегистрированных пользователей и гости: 1

Ресурс не содержит никакой другой информации, кроме описаний отдельных файлов или их групп, имеющихся у некоторых пользователей данного ресурса. Подтверждением наличия данных файлов у пользователя может иногда являться специальный набор значений, представляющих собой результаты применения односторонних хеш-функций к этим файлам или их группам. Данные наборы значений объединяются пользователями в единое целое и могут быть выложены ими вместе с описаниями имеющихся у них файлов. Администрация данного ресурса не имеет физической возможности убедиться, что описания файлов, выложенные нашими пользователями, равно как и созданные ими наборы хешей от файлов, соответствуют реальным файлам имеющимся у пользователей, а не созданы каким-либо иным способом.
cron
Яндекс.Метрика