Искры и угольки / Sparks and Embers (2015) DVDRip | L

Фильмы в формате DVD

Оценка торрента

5
0
Голосов нет
4
0
Голосов нет
3
0
Голосов нет
2
0
Голосов нет
1
0
Голосов нет
 
Всего голосов : 0

 Статистика раздачи 
Размер: 699.65 МБ   |  Зарегистрирован: Май 23, 2016, 2:28 pm   |   .torrent скачан: 292 раз
Сидеров: 46  [ 0 байт/сек ]   Личеров: 38  [ 0 байт/сек ]  

Искры и угольки / Sparks and Embers (2015) DVDRip | L

Сообщение sergey » Май 23, 2016, 2:28 pm

Искры и угольки / Sparks and Embers

Страна: Великобритания
Производство: Art4noise, Cinemagine, Gloucester Place Films, GSP Studios, Union Roth Capital
Год выпуска: 2015
Жанр: драма, мелодрама, комедия
Продолжительность: 01:25:01

Режиссер: Гэвин Бойтер
Автор сценария: Гэвин Бойтер

В ролях: Крис Маршалл, Аннелиз Эм, Валид Ахтар, Шон Бэйкер, Капиль Парих, Джейд Александр, Кен Бойтер

Описание: Том и Элоиза встретились по вине неблагоприятных обстоятельств, застряв в лифте после того, как Элоиза уволила Тома. Тем не менее, между ними проскочила искра. 5 лет спустя они расстаются и Элоиза возвращается в Францию. У Тома есть 45 минут, чтобы вернуть ее...



Перевод: Любительский (многоголосый, закадровый)
Субтитры: нет

Качество: DVDRip
Формат: АVI
Видео кодек: XviD
Аудио кодек: АС3
Видео: 640x352 (16:9), 25.000 fps, XviD ~844 kbps avg, 0.125 bit/pixel
Аудио: 48.0 kHz, AC3 Dolby Digital, 2/0 (L,R) ch, ~128 kbps

Дата премьеры (мир): 20 октября 2015

ПРИМЕЧАНИЕ: ПРИСУТСТВУЕТ РЕКЛАМА!

General
Format : AVI
Format/Info : Audio Video Interleave
Overall bit rate : 1012 Kbps
Writing application : VirtualDubMod 1.5.10.3 | (build 2550/release)
Writing library : VirtualDubMod build 2550/release

Video
ID : 0
Format : MPEG-4 Visual
Format profile : Advanced Simple@L5
Format settings, BVOP : 2
Format settings, QPel : No
Format settings, GMC : No warppoints
Format settings, Matrix : Custom
Codec ID : XVID
Codec ID/Hint : XviD
Bit rate : 844 Kbps
Width : 640 pixels
Height : 352 pixels
Display aspect ratio : 16:9
Frame rate : 25.000 fps
Color space : YUV
Chroma subsampling : 4:2:0
Bit depth : 8 bits
Scan type : Progressive
Compression mode : Lossy
Bits/(Pixel*Frame) : 0.125
Stream size : 4.27 MiB (83%)
Writing library : XviD 1.2.1 (UTC 2008-12-04)

Audio
ID : 1
Format : AC-3
Format/Info : Audio Coding 3
Mode extension : CM (complete main)
Format settings, Endianness : Big
Codec ID : 2000
Bit rate mode : Constant
Bit rate : 128 Kbps
Channel(s) : 2 channels
Channel positions : Front: L R
Sampling rate : 48.0 KHz
Compression mode : Lossy
Stream size : 794 KiB (15%)
Alignment : Split accross interleaves
Interleave, duration : 40 ms (1.01 video frame)
Interleave, preload duration : 500 ms

   
Торрент: Зарегистрирован [Май 23, 2016, 2:28 pm]
Видео DVD Скачать торрент Магнет ссылка Смотреть онлайн
Скачать торрент
[ Размер 14.36 КБ / Просмотров 26 ]
Статус:
Проверен
---
.torrent скачан: 292 раз
Приватный: Нет (DHT включён)
Размер: 699.65 МБ (733 634 560)
   
Аватара пользователя
sergey
 
Раздал: 42.54 ТБ
Скачал: 198.69 ГБ
Ратио: 265.234
Сообщения: 5337
Зарегистрирован: Август 6, 2012, 2:11 pm
Откуда: СССР

Флаг страны: СССР

  • Похожие торренты
    Ответы
    Просмотры
    Последнее сообщение

Вернуться в Видео DVD



Кто сейчас на конференции

Сейчас эту тему просматривают: нет зарегистрированных пользователей и гости: 1

Ресурс не содержит никакой другой информации, кроме описаний отдельных файлов или их групп, имеющихся у некоторых пользователей данного ресурса. Подтверждением наличия данных файлов у пользователя может иногда являться специальный набор значений, представляющих собой результаты применения односторонних хеш-функций к этим файлам или их группам. Данные наборы значений объединяются пользователями в единое целое и могут быть выложены ими вместе с описаниями имеющихся у них файлов. Администрация данного ресурса не имеет физической возможности убедиться, что описания файлов, выложенные нашими пользователями, равно как и созданные ими наборы хешей от файлов, соответствуют реальным файлам имеющимся у пользователей, а не созданы каким-либо иным способом.
cron
Яндекс.Метрика