Смешарики. Легенда о золотом драконе (2016) НDRip | Лицензия

Мультфильмы

Оценка торрента

5
0
Голосов нет
4
0
Голосов нет
3
0
Голосов нет
2
0
Голосов нет
1
0
Голосов нет
 
Всего голосов : 0

 Статистика раздачи 
Размер: 1.37 ГБ   |  Зарегистрирован: Май 26, 2016, 6:40 am   |   .torrent скачан: 21678 раз
Сидеров: 1811  [ 0 байт/сек ]   Личеров: 19  [ 0 байт/сек ]  

Смешарики. Легенда о золотом драконе (2016) НDRip | Лицензия

Сообщение sergey » Май 26, 2016, 6:40 am

Смешарики. Легенда о золотом драконе

Страна: Россия
Производство: Студия Анимации «Петербург», Art Pictures Studio
Год выпуска: 2016
Жанр: мультфильм, приключения, комедия
Продолжительность: 01:20:15

Режиссер: Денис Чернов
Авторы сценария: Денис Чернов, Дмитрий Яковенко

В ролях: Михаил Черняк, Сергей Мардарь, Антон Виноградов, Владимир Постников, Светлана Письмиченко, Вадим Бочанов, Гарик Харламов, Дмитрий Нагиев

Описание: Выдающийся учёный и его команда отправляются в самое сердце диких джунглей, где их ждут опасные приключения, свирепые туземцы и расхитители гробниц, до зубов вооруженные гаджетами...



Перевод: не требуется (оригинал)
Субтитры: нет

Качество: НDRip
Формат: АVI
Видео кодек: XviD
Аудио кодек: АС3
Видео: 720x304 (2.35:1), 23.976 fps, XviD ~1 981 kbps avg, 0.200 bit/pixel
Аудио: 48.0 kHz, AC3 Dolby Digital, 3/2 (L,C,R,l,r) + LFE ch, ~448.00 kbps





General
Format : AVI
Format/Info : Audio Video Interleave
Overall bit rate : 2 221 Kbps
Movie name : Smeshariki.2O16.O.HDRip.1400MB
Writing application : VirtualDubMod 1.5.10.3 | (build 2550/release)
Writing library : VirtualDubMod build 2550/release
Copyright : MoreFilms

Video
ID : 0
Format : MPEG-4 Visual
Format profile : Advanced Simple@L5
Format settings, BVOP : 2
Format settings, QPel : No
Format settings, GMC : No warppoints
Format settings, Matrix : Custom
Codec ID : XVID
Codec ID/Hint : XviD
Bit rate : 1 981 Kbps
Width : 720 pixels
Height : 304 pixels
Display aspect ratio : 2.35:1
Frame rate : 23.976 fps
Color space : YUV
Chroma subsampling : 4:2:0
Bit depth : 8 bits
Scan type : Progressive
Compression mode : Lossy
Bits/(Pixel*Frame) : 0.200
Stream size : 6.95 MiB (70%)
Writing library : XviD 1.2.1 (UTC 2008-12-04)

Audio
ID : 1
Format : AC-3
Format/Info : Audio Coding 3
Mode extension : CM (complete main)
Format settings, Endianness : Big
Codec ID : 2000
Bit rate mode : Constant
Bit rate : 448 Kbps
Channel(s) : 6 channels
Channel positions : Front: L C R, Side: L R, LFE
Sampling rate : 48.0 KHz
Compression mode : Lossy
Stream size : 2.96 MiB (30%)
Alignment : Split accross interleaves
Interleave, preload duration : 500 ms

   
Торрент: Зарегистрирован [Май 26, 2016, 6:40 am]
Мультфильмы Скачать торрент Магнет ссылка Смотреть онлайн
Скачать торрент
[ Размер 14.36 КБ / Просмотров 20 ]
Статус:
Проверен
---
.torrent скачан: 21678 раз
Приватный: Нет (DHT включён)
Размер: 1.37 ГБ (1 467 627 520)
   
Аватара пользователя
sergey
 
Раздал: 42.54 ТБ
Скачал: 198.69 ГБ
Ратио: 265.234
Сообщения: 5348
Зарегистрирован: Август 6, 2012, 2:11 pm
Откуда: СССР

Флаг страны: СССР

  • Похожие торренты
    Ответы
    Просмотры
    Последнее сообщение

Вернуться в Мультфильмы



Кто сейчас на конференции

Сейчас эту тему просматривают: нет зарегистрированных пользователей и гости: 1

Ресурс не содержит никакой другой информации, кроме описаний отдельных файлов или их групп, имеющихся у некоторых пользователей данного ресурса. Подтверждением наличия данных файлов у пользователя может иногда являться специальный набор значений, представляющих собой результаты применения односторонних хеш-функций к этим файлам или их группам. Данные наборы значений объединяются пользователями в единое целое и могут быть выложены ими вместе с описаниями имеющихся у них файлов. Администрация данного ресурса не имеет физической возможности убедиться, что описания файлов, выложенные нашими пользователями, равно как и созданные ими наборы хешей от файлов, соответствуют реальным файлам имеющимся у пользователей, а не созданы каким-либо иным способом.
cron
Яндекс.Метрика