Цветок и змея: Ноль / Hana to hebi: Zero [2014 г.,, WEB-DLRip] VO

Фильмы в формате WEBRip/Avi и т.д.

Оценка торрента

5
0
Голосов нет
4
0
Голосов нет
3
0
Голосов нет
2
0
Голосов нет
1
0
Голосов нет
 
Всего голосов : 0

 Статистика раздачи 
Размер: 1.45 ГБ   |  Зарегистрирован: Май 26, 2016, 6:42 am   |   .torrent скачан: 0 раз
Сидеров: 11  [ 0 байт/сек ]   Личеров: 1  [ 0 байт/сек ]  

Цветок и змея: Ноль / Hana to hebi: Zero [2014 г.,, WEB-DLRip] VO

Сообщение sergey » Май 26, 2016, 6:42 am

Цветок и змея: Ноль / Hana to hebi: Zero
Производство: Япония, Toei Co. Ltd., Toei Video Co. Ltd.
Год выпуска: 2014 г.
Жанр: Эротический триллер ужасов
Продолжительность: 01:51:11
Мировая премьера: 17 мая 2014
Перевод: Любительский (одноголосый, закадровый) [ХиХиДоК]
Режиссер: Хадзимэ Хасимото / Hajime Hashimoto
В ролях: Маико Аммано, Норико Хамада, Рина Сакураги, Наоки Кавано, Ючи Кимура, Хидэо Сакаки, Дайкити Сугавара, Кандзи Цуда, Юки Цудзимото
Описание: По мотивам скандального романа "Цветок и Змея" Оникору Дана, впервые напечатанного в 1962 году.
Мисаки Амемия, женщина-детектив, вступает в борьбу с подпольным сообществом. Банда похищает женщин и выкладывает мучения на закрытом сайте в прямом эфире. В расследовании она продвигается слишком далеко и сама попадает в ловушку.[
Качество видео: WEB-DLRip
Контейнер: AVI
Видео кодек: XviD
Аудио кодек: MP3
Видео: 720x384 (1.88:1), 23.976 fps, XviD build 64 ~1671 kbps avg, 0.25 bit/pixel
Аудио: 44.100 kHz, MPEG Layer 3, 2 ch, ~192.00 kbps avg
Cубтитры: отсутствуют
Формат : AVI
Формат/Информация : Audio Video Interleave
Профиль формата : OpenDML
Размер файла : 1,45 Гбайт
Продолжительность : 1 ч. 51 м.
Общий поток : 1870 Кбит/сек
Название фильма : Cvetok i zmeja-nolj.2014.L1.WEBRip.[pirat.ca]
Программа кодирования : XviD4PSP 6.0 / 54.29.105
Видео
Идентификатор : 0
Формат : xvid
Идентификатор кодека : xvid
Продолжительность : 1 ч. 51 м.
Битрейт : 1664 Кбит/сек
Ширина : 720 пикселей
Высота : 384 пикселя
Соотношение сторон : 1,85:1
Частота кадров : 23,976 кадра/сек
Тип развёртки : Прогрессивная
Бит/(Пиксели*Кадры) : 0.251
Размер потока : 1,29 Гбайт (89%)
Аудио
Идентификатор : 1
Формат : MPEG Audio
Версия формата : Version 1
Профиль формата : Layer 3
Идентификатор кодека : 55
Идентификатор кодека/Подсказка : MP3
Продолжительность : 1 ч. 51 м.
Вид битрейта : Постоянный
Битрейт : 192 Кбит/сек
Каналы : 2 канала
Частота : 44,1 КГц
Метод сжатия : С потерями
Размер потока : 153 Мбайт (10%)
Выравнивание : Соединение по промежуткам
Продолжительность промежутка : 26 мс. (0,63 видеокадр)
   
Торрент: Зарегистрирован [Май 26, 2016, 6:42 am]
Видео WEBRip Скачать торрент Магнет ссылка Смотреть онлайн
Скачать торрент
[ Размер 15 КБ / Просмотров 5 ]
Статус:
Проверен
---
.torrent скачан: 0 раз
Приватный: Нет (DHT включён)
Размер: 1.45 ГБ (1 559 422 118)
   
Аватара пользователя
sergey
 
Раздал: 42.54 ТБ
Скачал: 198.69 ГБ
Ратио: 265.234
Сообщения: 5347
Зарегистрирован: Август 6, 2012, 2:11 pm
Откуда: СССР

Флаг страны: СССР

  • Похожие торренты
    Ответы
    Просмотры
    Последнее сообщение

Вернуться в Видео WEBRip



Кто сейчас на конференции

Сейчас эту тему просматривают: нет зарегистрированных пользователей и гости: 1

Ресурс не содержит никакой другой информации, кроме описаний отдельных файлов или их групп, имеющихся у некоторых пользователей данного ресурса. Подтверждением наличия данных файлов у пользователя может иногда являться специальный набор значений, представляющих собой результаты применения односторонних хеш-функций к этим файлам или их группам. Данные наборы значений объединяются пользователями в единое целое и могут быть выложены ими вместе с описаниями имеющихся у них файлов. Администрация данного ресурса не имеет физической возможности убедиться, что описания файлов, выложенные нашими пользователями, равно как и созданные ими наборы хешей от файлов, соответствуют реальным файлам имеющимся у пользователей, а не созданы каким-либо иным способом.
cron
Яндекс.Метрика