Моя большая греческая свадьба 2 / My Big Fat Greek Wedding 2 (2016) WEBRip | L

Фильмы в формате WEBRip/Avi и т.д.

Оценка торрента

5
0
Голосов нет
4
0
Голосов нет
3
0
Голосов нет
2
0
Голосов нет
1
0
Голосов нет
 
Всего голосов : 0

 Статистика раздачи 
Размер: 1.37 ГБ   |  Зарегистрирован: Июнь 1, 2016, 4:18 pm   |   .torrent скачан: 152 раз
Сидеров: 173  [ 0 байт/сек ]   Личеров: 69  [ 0 байт/сек ]  

Моя большая греческая свадьба 2 / My Big Fat Greek Wedding 2 (2016) WEBRip | L

Сообщение sergey » Июнь 1, 2016, 4:18 pm

Моя большая греческая свадьба 2 / My Big Fat Greek Wedding 2

Страна: США Канада
Производство: Gold Circle Films, HBO Films, Playtone, Universal Pictures
Год выпуска: 2016
Жанр: мелодрама, комедия
Продолжительность: 01:33:09

Режиссер: Кирк Джонс
Автор сценария: Ниа Вардалос

В ролях: Ниа Вардалос, Джон Корбетт, Майкл Константин, Лэйни Казан, Андреа Мартин, Джиа Каридес, Джои Фатоне, Елена Кампурис

Описание: У главных героев первого фильма, Тулы Портокалос и Йена Миллера, подросла дочь, которая ждет не дождется как уйти из-под крыла родителей…


Перевод: Любительский (многоголосый, закадровый)
Субтитры: корейские (вшитые)

Качество: WEBRip
Формат: АVI
Видео кодек: XviD
Аудио кодек: АС3
Видео: 720x304 (2.35:1), 23.976 fps, XviD ~1 317 kbps avg
Аудио: 48.0 kHz, AC3 Dolby Digital, 2/0 (L,R) ch, ~384 kbps


ПРИМЕЧАНИЕ: ПРИСУТСТВУЕТ РЕКЛАМА!

General
Format : AVI
Format/Info : Audio Video Interleave
Overall bit rate : 1 711 Kbps
Writing application : VirtualDubMod 1.5.10.3 | (build 2550/release)
Writing library : VirtualDubMod build 2550/release

Video
ID : 0
Format : MPEG-4 Visual
Format profile : Advanced Simple@L5
Format settings, BVOP : 2
Format settings, QPel : No
Format settings, GMC : No warppoints
Format settings, Matrix : Custom
Codec ID : XVID
Codec ID/Hint : XviD
Bit rate : 1 317 Kbps
Width : 720 pixels
Height : 304 pixels
Display aspect ratio : 2.35:1
Frame rate : 23.976 fps
Color space : YUV
Chroma subsampling : 4:2:0
Bit depth : 8 bits
Scan type : Progressive
Compression mode : Lossy
Bits/(Pixel*Frame) : 0.251
Stream size : 11.0 MiB (77%)
Writing library : XviD 1.2.1 (UTC 2008-12-04)

Audio
ID : 1
Format : AC-3
Format/Info : Audio Coding 3
Mode extension : CM (complete main)
Format settings, Endianness : Big
Codec ID : 2000
Bit rate mode : Constant
Bit rate : 384 Kbps
Channel(s) : 2 channels
Channel positions : Front: L R
Sampling rate : 48.0 KHz
Compression mode : Lossy
Delay relative to video : 22ms
Stream size : 3.20 MiB (22%)
Alignment : Split accross interleaves
Interleave, duration : 42 ms (1.01 video frame)
Interleave, preload duration : 500 ms

   
Торрент: Зарегистрирован [Июнь 1, 2016, 4:18 pm]
Видео WEBRip Скачать торрент Магнет ссылка Смотреть онлайн
Скачать торрент
[ Размер 14.37 КБ / Просмотров 20 ]
Статус:
Проверен
---
.torrent скачан: 152 раз
Приватный: Нет (DHT включён)
Размер: 1.37 ГБ (1 467 561 984)
   
Аватара пользователя
sergey
 
Раздал: 42.54 ТБ
Скачал: 198.69 ГБ
Ратио: 265.234
Сообщения: 5343
Зарегистрирован: Август 6, 2012, 2:11 pm
Откуда: СССР

Флаг страны: СССР

  • Похожие торренты
    Ответы
    Просмотры
    Последнее сообщение

Вернуться в Видео WEBRip



Кто сейчас на конференции

Сейчас эту тему просматривают: нет зарегистрированных пользователей и гости: 1

Ресурс не содержит никакой другой информации, кроме описаний отдельных файлов или их групп, имеющихся у некоторых пользователей данного ресурса. Подтверждением наличия данных файлов у пользователя может иногда являться специальный набор значений, представляющих собой результаты применения односторонних хеш-функций к этим файлам или их группам. Данные наборы значений объединяются пользователями в единое целое и могут быть выложены ими вместе с описаниями имеющихся у них файлов. Администрация данного ресурса не имеет физической возможности убедиться, что описания файлов, выложенные нашими пользователями, равно как и созданные ими наборы хешей от файлов, соответствуют реальным файлам имеющимся у пользователей, а не созданы каким-либо иным способом.
cron
Яндекс.Метрика