Бунтарь / Baaghi [2016 г., DVDRip]

Фильмы в формате DVD

Оценка торрента

5
0
Голосов нет
4
0
Голосов нет
3
0
Голосов нет
2
0
Голосов нет
1
0
Голосов нет
 
Всего голосов : 0

 Статистика раздачи 
Размер: 1.26 ГБ   |  Зарегистрирован: Июнь 25, 2016, 8:30 pm   |   .torrent скачан: 1 раз
Сидеров: 6  [ 0 байт/сек ]   Личеров: 2  [ 0 байт/сек ]  

Бунтарь / Baaghi [2016 г., DVDRip]

Сообщение sergey » Июнь 25, 2016, 8:30 pm

Бунтарь / Baaghi
Производство: Индия, Benetone Films, Nadiadwala Grandson Entertainment, Prime Focus
Год выпуска: 2016 г.
Жанр: боевик, мелодрама
Продолжительность: 02:12:53
Мировая премьера: 28 апреля 2016
Перевод: Любительский (многоголосый, закадровый) [Sunshine Studio]
Режиссер: Сабир Кхан / Sabir KhanВ ролях: Шраддха Капур, Тайгер Шрофф, Судхир Бабу Посани, Парас Арора, Самит ГулатиОписание: Рони нельзя назвать дураком. Но, в свои 23 года, Рони своеобразно выражает свои мысли и решает спорные вопросы. Он мог бы стать отличным врачом или ученым, но бунтарский характер не дает ему такой возможности. Устав от вечных проблем и непонимания со стороны сына, родители отправляют парня на обучение в академию, где на первом месте стоит дисциплина и самообладание. Приехав на место, Рони сразу проявил свой дух мятежника. Возмездие настигло нового студента моментально. Молодой человек понял, что необходимо приспосабливаться, чтобы избежать постоянного унижения. В академии все на равном положении. Нет любимчиков и изгоев. Ученик обязан выполнять все, что прикажут учителя. Молодежь обучают всему, начиная от мытья полов и владения мечом и заканчивая духовными практиками и различными единоборствами.Тут он познакомился с прекрасной Сией которая, так же как и он была отправлена в академию из-за несносного характера. Он влюбился, но у девушки есть парень. Характер вновь взял верх над Рони. Парень различными способами пытается привлечь внимание Сии. Получив известие о пропаже Сии, Рони отправляется на ее поиски в Таиланд. Ее выкрал Ракхав, местный криминальный авторитет
Качество видео: DVDRip
Контейнер: AVI
Видео кодек: XviD
Аудио кодек: MP3
Видео: 720x304 (2.37:1), 47.952 fps, XviD build 67 ~1214 kbps avg, 0.12 bit/pixel
Аудио: 44.100 kHz, MPEG Layer 3, 2 ch, ~128.00 kbps avg
Cубтитры: отсутствуют
Общее
Полное имя : F:\Бунтарь\Buntar.2016.DVDRip.[pirat.ca].avi
Формат : AVI
Формат/Информация : Audio Video Interleave
Профиль формата : OpenDML
Размер файла : 1,26 Гбайт
Продолжительность : 2 ч. 12 м.
Режим общего битрейта : Переменный
Общий поток : 1356 Кбит/сек
Название фильма : Buntar.2016.DVDRip.
Программа кодирования : Lavf54.59.107
Видео
Идентификатор : 0
Формат : MPEG-4 Visual
Профиль формата : Advanced
Параметр BVOP формата : 2
Параметр QPel формата : Нет
Параметр GMC формата : Без точки перехода
Параметр матрицы формата : Выборочная
Идентификатор кодека : XVID
Идентификатор кодека/Подсказка : XviD
Продолжительность : 2 ч. 12 м.
Битрейт : 1208 Кбит/сек
Ширина : 720 пикселей
Высота : 304 пикселя
Соотношение сторон : 2,35:1
Частота кадров : 47,952 кадров/сек
Частота кадров в оригинале : 23,976 (24000/1001) кадра/сек
Цветовое пространство : YUV
Субдискретизация насыщенности : 4:2:0
Битовая глубина : 8 бит
Тип развёртки : Прогрессивная
Метод сжатия : С потерями
Бит/(Пиксели*Кадры) : 0.115
Размер потока : 1,12 Гбайт (89%)
Библиотека кодирования : XviD 67
Аудио
Идентификатор : 1
Формат : MPEG Audio
Версия формата : Version 1
Профиль формата : Layer 3
Идентификатор кодека : 55
Идентификатор кодека/Подсказка : MP3
Продолжительность : 2 ч. 12 м.
Вид битрейта : Переменный
Битрейт : 128 Кбит/сек
Каналы : 2 канала
Частота : 44,1 КГц
Метод сжатия : С потерями
Задержка видео : 29 мс.
Размер потока : 122 Мбайт (9%)
Выравнивание : Соединение по промежуткам
Продолжительность промежутка : 26 мс. (1,25 видеокадр)
   
Торрент: Зарегистрирован [Июнь 25, 2016, 8:30 pm]
Видео DVD Скачать торрент Магнет ссылка Смотреть онлайн
Скачать торрент
[ Размер 13.05 КБ / Просмотров 40 ]
Статус:
Проверен
---
.torrent скачан: 1 раз
Приватный: Нет (DHT включён)
Размер: 1.26 ГБ (1 351 003 712)
   
Аватара пользователя
sergey
 
Раздал: 42.54 ТБ
Скачал: 198.69 ГБ
Ратио: 265.234
Сообщения: 5348
Зарегистрирован: Август 6, 2012, 2:11 pm
Откуда: СССР

Флаг страны: СССР

  • Похожие торренты
    Ответы
    Просмотры
    Последнее сообщение

Вернуться в Видео DVD



Кто сейчас на конференции

Сейчас эту тему просматривают: нет зарегистрированных пользователей и гости: 1

Ресурс не содержит никакой другой информации, кроме описаний отдельных файлов или их групп, имеющихся у некоторых пользователей данного ресурса. Подтверждением наличия данных файлов у пользователя может иногда являться специальный набор значений, представляющих собой результаты применения односторонних хеш-функций к этим файлам или их группам. Данные наборы значений объединяются пользователями в единое целое и могут быть выложены ими вместе с описаниями имеющихся у них файлов. Администрация данного ресурса не имеет физической возможности убедиться, что описания файлов, выложенные нашими пользователями, равно как и созданные ими наборы хешей от файлов, соответствуют реальным файлам имеющимся у пользователей, а не созданы каким-либо иным способом.
cron
Яндекс.Метрика