Бэтмен против Супермена: На заре справедливости / Batman v Superman: Dawn of Justice (2016) WEB-DL 1080p | D | Line

Фильмы в формате WEBRip/Avi и т.д.

Оценка торрента

5
0
Голосов нет
4
0
Голосов нет
3
0
Голосов нет
2
0
Голосов нет
1
0
Голосов нет
 
Всего голосов : 0

 Статистика раздачи 
Размер: 5.38 ГБ   |  Зарегистрирован: Июнь 28, 2016, 11:32 pm   |   .torrent скачан: 49274 раз
Сидеров: 5200  [ 0 байт/сек ]   Личеров: 3555  [ 0 байт/сек ]  

Бэтмен против Супермена: На заре справедливости / Batman v Superman: Dawn of Justice (2016) WEB-DL 1080p | D | Line

Сообщение MrAnonym » Июнь 28, 2016, 11:32 pm

Бэтмен против Супермена: На заре справедливости / Batman v Superman: Dawn of Justice

Страна: США
Производство: Warner Bros. Pictures, DC Entertainment, Cruel & Unusual Films, Atlas Entertainment
Год выпуска: 2016
Жанр: фантастика, фэнтези, боевик, приключения
Продолжительность: 02:31:38

Режиссер: Зак Снайдер
Автор сценария: Крис Террио, Дэвид С. Гойер, Боб Кейн

В ролях: Генри Кавилл, Бен Аффлек, Галь Гадот, Эми Адамс, Джесси Айзенберг, Джереми Айронс, Дайан Лэйн, Лоренс Фишбёрн

Описание: Опасаясь, что действия богоподобного супергероя так и останутся бесконтрольными, грозный и могущественный страж Готэм Сити бросает вызов самому почитаемому в наши дни спасителю Метрополиса, в то время как весь остальной мир решает, какой герой ему по-настоящему нужен. И пока Бэтмен и Супермен пребывают в состоянии войны друг с другом, возникает новая угроза, которая ставит человечество под самую большую опасность, с которой оно когда-либо сталкивалось...



Перевод: Профессиональный (полное дублирование) | чистый звук
Субтитры: нет

Качество: WEB-DL 1080p
Формат: МКV
Видео кодек: AVC
Аудио кодек: АС3
Видео: 1916x796 (2.40:1), 23.976 fps, MPEG-4 AVC ~4 400 kbps avg
Аудио №1: 48.0 kHz, AC3 Dolby Digital, 2/0 (L,R) ch, ~192.00 kbps | RUS
Аудио №2: 48.0 kHz, AC3 Dolby Digital, 3/2 (L,C,R,l,r) + LFE ch, ~384 kbps | ENG

Дата премьеры (мир): 12 марта 2016
Дата премьеры (РФ): 24 марта 2016, «Каро-Премьер»



General
Unique ID : 213616161417558720689267407771944448723 (0xA0B4F9E7737AA8C0A2D615D8651172D3)
Название : 6.v.C.Ha.3ape.CpraBedL1BoCty.2016.D.WEB-DL.1080p..mkv
Формат : Matroska
Формат version : Version 4 / Version 2
Размер файла : 5.38 GiB
Длительность : 2h 31mn
Общий Битрейт : 5 077 Kbps
Encoded date : UTC 2016-06-28 05:55:05
Создано приложением : mkvmerge v8.3.0 ('Over the Horizon') 64bit
Writing library : libebml v1.3.1 + libmatroska v1.4.2
Длительность : 02:31:38.048000000
NUMBER_OF_FRAMES : 284314
NUMBER_OF_BYTES : 218353152
_STATISTICS_WRITING_APP : mkvmerge v8.3.0 ('Over the Horizon') 64bit
_STATISTICS_WRITING_DATE_UTC : 2016-06-28 05:55:05
_STATISTICS_TAGS : BPS Длительность NUMBER_OF_FRAMES NUMBER_OF_BYTES

Video
ID : 1
Формат : AVC
Формат/Info : Advanced Video Кодек
Формат profile : [email protected]
Формат настройки, CABAC : Yes
Формат настройки, ReFrames : 5 frames
Кодек ID : V_MPEG4/ISO/AVC
Длительность : 2h 31mn
Битрейт : 4 400 Kbps
Width : 1 916 пикселей
Высота : 796 пикселей
Соотношение кадра : 2.40:1
Частота кадров : 23.976 fps
Цветопередача : YUV
Chroma subsampling : 4:2:0
Разрядность : 8 bits
Тип сканирования : Progressive
Bits/(Pixel*Frame) : 0.120
Размер потока : 4.66 GiB (87%)
Язык : English
Default : Yes
Forced : No
Color primaries : BT.709-5, BT.1361, IEC 61966-2-4, SMPTE RP177
Transfer characteristics : BT.709-5, BT.1361
Matrix coefficients : BT.709-5, BT.1361, IEC 61966-2-4 709, SMPTE RP177

Audio #1
ID : 2
Формат : AC-3
Формат/Info : Audio Coding 3
Расширение режима : CM (complete main)
Кодек ID : A_AC3
Длительность : 2h 31mn
Битрейт mode : Constant
Битрейт : 192 Kbps
Channel(s) : 2 канала
Channel positions : Front: L R
Частота : 48.0 KHz
Разрядность : 16 bits
Режим сжатия : Lossy
Размер потока : 208 MiB (4%)
Язык : Russian
Default : Yes
Forced : No

Audio #2
ID : 3
Формат : AC-3
Формат/Info : Audio Coding 3
Расширение режима : CM (complete main)
Кодек ID : A_AC3
Длительность : 2h 31mn
Битрейт mode : Constant
Битрейт : 384 Kbps
Channel(s) : 6 каналов
Channel positions : Front: L C R, Side: L R, LFE
Частота : 48.0 KHz
Разрядность : 16 bits
Режим сжатия : Lossy
Размер потока : 416 MiB (8%)
Язык : English
Default : No
Forced : No

Menu
00:00:00.000 : en:1
00:09:48.000 : en:2
00:20:45.000 : en:3
00:29:58.000 : en:4
00:38:46.000 : en:5
00:49:25.000 : en:6
00:59:21.000 : en:7
01:10:06.000 : en:8
01:21:14.000 : en:9
01:30:00.000 : en:10
01:38:20.000 : en:11
01:49:57.000 : en:12
02:01:48.000 : en:13
02:10:40.000 : en:14
02:18:41.000 : en:15
02:23:50.000 : en:16

   
Торрент: Зарегистрирован [Июнь 28, 2016, 11:32 pm]
Видео WEBRip Скачать торрент Магнет ссылка Смотреть онлайн
Скачать торрент
[ Размер 7.42 КБ / Просмотров 41 ]
Статус:
Проверен
---
.torrent скачан: 49274 раз
Приватный: Нет (DHT включён)
Размер: 5.38 ГБ (5 774 199 263)
   
๏̯͡๏ ︻デ═一 -
MrAnonym
 
Раздал: 16 КБ
Скачал: 16 МБ
Ратио: 0.001
Сообщения: 2
Зарегистрирован: Декабрь 18, 2015, 12:24 am

Флаг страны: СССР

  • Похожие торренты
    Ответы
    Просмотры
    Последнее сообщение

Вернуться в Видео WEBRip



Кто сейчас на конференции

Сейчас эту тему просматривают: нет зарегистрированных пользователей и гости: 1

Ресурс не содержит никакой другой информации, кроме описаний отдельных файлов или их групп, имеющихся у некоторых пользователей данного ресурса. Подтверждением наличия данных файлов у пользователя может иногда являться специальный набор значений, представляющих собой результаты применения односторонних хеш-функций к этим файлам или их группам. Данные наборы значений объединяются пользователями в единое целое и могут быть выложены ими вместе с описаниями имеющихся у них файлов. Администрация данного ресурса не имеет физической возможности убедиться, что описания файлов, выложенные нашими пользователями, равно как и созданные ими наборы хешей от файлов, соответствуют реальным файлам имеющимся у пользователей, а не созданы каким-либо иным способом.
cron
Яндекс.Метрика