Angry Birds в кино / The Angry Birds Movie (2016) WEBRip 720р | D | Line

Мультфильмы

Оценка торрента

5
0
Голосов нет
4
0
Голосов нет
3
0
Голосов нет
2
0
Голосов нет
1
0
Голосов нет
 
Всего голосов : 0

 Статистика раздачи 
Размер: 2.89 ГБ   |  Зарегистрирован: Июль 20, 2016, 6:17 pm   |   .torrent скачан: 18538 раз
Сидеров: 4530  [ 0 байт/сек ]   Личеров: 543  [ 0 байт/сек ]  

Angry Birds в кино / The Angry Birds Movie (2016) WEBRip 720р | D | Line

Сообщение sergey » Июль 20, 2016, 6:17 pm

Angry Birds в кино / The Angry Birds Movie

Страна: Финляндия США
Производство: Columbia Pictures, Village Roadshow Pictures, LStar Capital, Sony Pictures Animation
Год выпуска: 2016
Жанр: мультфильм, боевик, комедия, семейный
Продолжительность: 01:35:53

Режиссеры: Клэй Кэйтис, Фергал Рейли
Автор сценария: Джон Витти

В ролях: Питер Динклэйдж, Джейсон Судейкис, Кейт МакКиннон, Кигэн-Майкл Ки, Титус Берджесс, Шон Пенн, Билл Хейдер, Майя Рудольф

Описание: Фильм расскажет о том, как началось знаменитое противостояние птичек и свинок, персонажей популярной компьютерной игры, а также раскроет некоторые секреты любимых героев...



Перевод: Профессиональный (полное дублирование) | чистый звук
Субтитры: нет

Качество: WEBRip 720р
Формат: МКV
Видео кодек: AVC
Аудио кодек: АС3
Видео: 1232x688 (16:9), 29.970 fps, MPEG-4 AVC ~4 088 kbps avg
Аудио: 48.0 kHz, AC3 Dolby Digital, 2/0 (L,R) ch, ~192 kbps

Дата премьеры (мир): 5 мая 2016
Дата премьеры (РФ): 12 мая 2016, «WDSSPR»

ПРИМЕЧАНИЕ: ПРИСУТСТВУЕТ РЕКЛАМА!

General
Unique ID : 180716478123923636434367068207457529917 (0x87F4BA4856CCFAA8952EB76051E0703D)
Format : Matroska
Format version : Version 4 / Version 2
Overall bit rate mode : Constant
Overall bit rate : 4 367 Kbps
Encoded date : UTC 2016-07-19 12:06:43
Writing application : mkvmerge v8.8.0 ('Wind at my back') 64bit
Writing library : libebml v1.3.3 + libmatroska v1.4.4
DURATION : 00:01:05.760000000
NUMBER_OF_FRAMES : 2055
NUMBER_OF_BYTES : 1578240
_STATISTICS_WRITING_APP : mkvmerge v8.8.0 ('Wind at my back') 64bit
_STATISTICS_WRITING_DATE_UTC : 2016-07-19 12:06:43

Video
ID : 1
Format : AVC
Format/Info : Advanced Video Codec
Format profile : High@L3.1
Format settings, CABAC : Yes
Format settings, ReFrames : 5 frames
Codec ID : V_MPEG4/ISO/AVC
Bit rate mode : Constant
Bit rate : 4 088 Kbps
Nominal bit rate : 4 500 Kbps
Width : 1 232 pixels
Height : 688 pixels
Display aspect ratio : 16:9
Frame rate mode : Constant
Frame rate : 29.970 fps
Standard : Component
Color space : YUV
Chroma subsampling : 4:2:0
Bit depth : 8 bits
Scan type : Progressive
Bits/(Pixel*Frame) : 0.161
Stream size : 32.1 MiB (94%)
Default : Yes
Forced : No
Color range : Limited
Color primaries : BT.709
Transfer characteristics : BT.709
Matrix coefficients : BT.709

Audio
ID : 2
Format : AC-3
Format/Info : Audio Coding 3
Mode extension : CM (complete main)
Format settings, Endianness : Big
Codec ID : A_AC3
Bit rate mode : Constant
Bit rate : 192 Kbps
Channel(s) : 2 channels
Channel positions : Front: L R
Sampling rate : 48.0 KHz
Compression mode : Lossy
Stream size : 1.51 MiB (4%)
Default : Yes
Forced : No

   
Торрент: Зарегистрирован [Июль 20, 2016, 6:17 pm]
Мультфильмы Скачать торрент Магнет ссылка Смотреть онлайн
Скачать торрент
[ Размер 15.13 КБ / Просмотров 39 ]
Статус:
Проверен
---
.torrent скачан: 18538 раз
Приватный: Нет (DHT включён)
Размер: 2.89 ГБ (3 099 090 462)
   
Аватара пользователя
sergey
 
Раздал: 42.54 ТБ
Скачал: 198.69 ГБ
Ратио: 265.234
Сообщения: 5337
Зарегистрирован: Август 6, 2012, 2:11 pm
Откуда: СССР

Флаг страны: СССР

  • Похожие торренты
    Ответы
    Просмотры
    Последнее сообщение

Вернуться в Мультфильмы



Кто сейчас на конференции

Сейчас эту тему просматривают: нет зарегистрированных пользователей и гости: 1

Ресурс не содержит никакой другой информации, кроме описаний отдельных файлов или их групп, имеющихся у некоторых пользователей данного ресурса. Подтверждением наличия данных файлов у пользователя может иногда являться специальный набор значений, представляющих собой результаты применения односторонних хеш-функций к этим файлам или их группам. Данные наборы значений объединяются пользователями в единое целое и могут быть выложены ими вместе с описаниями имеющихся у них файлов. Администрация данного ресурса не имеет физической возможности убедиться, что описания файлов, выложенные нашими пользователями, равно как и созданные ими наборы хешей от файлов, соответствуют реальным файлам имеющимся у пользователей, а не созданы каким-либо иным способом.
cron
Яндекс.Метрика