Тайная жизнь домашних животных / The Secret Life of Pets (2016) TS | Line

Не вошедшее ни в одну из категорий

Оценка торрента

5
0
Голосов нет
4
0
Голосов нет
3
0
Голосов нет
2
0
Голосов нет
1
0
Голосов нет
 
Всего голосов : 0

 Статистика раздачи 
Размер: 1.36 ГБ   |  Зарегистрирован: Август 23, 2016, 9:10 am   |   .torrent скачан: 4526 раз
Сидеров: 3908  [ 0 байт/сек ]   Личеров: 444  [ 0 байт/сек ]  

Тайная жизнь домашних животных / The Secret Life of Pets (2016) TS | Line

Сообщение sergey » Август 23, 2016, 9:10 am

Тайная жизнь домашних животных / The Secret Life of Pets

Страна: Япония США
Производство: Dentsu, Fuji Television Network Inc., Universal Pictures, Illumination Entertainment
Год выпуска: 2016
Жанр: мультфильм, комедия, семейный
Продолжительность: 01:23:15

Режиссеры: Ярроу Чейни, Крис Рено
Авторы сценария: Синко Пол, Кен Даурио, Брайан Линч

В ролях: Луис С.К., Эрик Стоунстрит, Кевин Харт, Дженни Слейт, Элли Кемпер, Альберт Брукс, Лэйк Белл, Дэна Карви, Хэннибал Бёресс

Описание: Что делают домашние животные пока хозяева пропадают на работе..? С тоской смотрят в окно..? Смиренно дремлют на коврике у двери..? Как бы не так. Они ведут свою тайную жизнь...



Перевод: Профессиональный (полное дублирование) | чистый звук
Субтитры: нет

Качество: TS
Формат: АVI
Видео кодек: XviD
Аудио кодек: АС3
Видео: 720x384 (1.85:1), 25.000 fps, XviD build 73 ~2 047 kbps avg
Аудио: 48 kHz, AC3 Dolby Digital, 2/0 (L,R) ch, ~192 kbps

Бюджет: $75 000 000
Дата премьеры (мир): 18 июня 2016
Дата премьеры (РФ): 18 августа 2016, «UPI»



General
Complete name : The.Secret.Life.of.Pets.2016.D.TS.14OOMB.avi
Format : AVI
Format/Info : Audio Video Interleave
File size : 1.36 GiB
Duration : 1h 23mn
Overall bit rate : 2 341 Kbps
Writing application : VirtualDubMod 1.5.10.3 | (build 2550/release)
Writing library : VirtualDubMod build 2550/release
Video #0
ID : 0
Format : MPEG-4 Visual
Format profile : Advanced Simple@L5
Format settings, BVOP : 1
Format settings, QPel : No
Format settings, GMC : No warppoints
Format settings, Matrix : Default (MPEG)
Codec ID : XVID
Codec ID/Hint : XviD
Duration : 1h 23mn
Bit rate : 2 047 Kbps
Width : 720 pixels
Height : 384 pixels
Display aspect ratio : 1.85:1
Frame rate : 25.000 fps
Color space : YUV
Chroma subsampling : 4:2:0
Bit depth : 8 bits
Scan type : Progressive
Compression mode : Lossy
Bits/(Pixel*Frame) : 0.296
Stream size : 1.19 GiB (87%)
Writing library : XviD 73
Audio #1
ID : 1
Format : AC-3
Format/Info : Audio Coding 3
Mode extension : CM (complete main)
Format settings, Endianness : Big
Codec ID : 2000
Duration : 1h 23mn
Bit rate mode : Constant
Bit rate : 192 Kbps
Channel(s) : 2 channels
Channel positions : Front: L R
Sampling rate : 48.0 KHz
Compression mode : Lossy
Stream size : 114 MiB (8%)
Alignment : Split accross interleaves

   
Торрент: Зарегистрирован [Август 23, 2016, 9:10 am]
Остальное Скачать торрент Магнет ссылка
Скачать торрент
[ Размер 14.31 КБ / Просмотров 9 ]
Статус:
Проверен
---
.torrent скачан: 4526 раз
Приватный: Нет (DHT включён)
Размер: 1.36 ГБ (1 461 639 168)
   
Аватара пользователя
sergey
 
Раздал: 42.54 ТБ
Скачал: 198.69 ГБ
Ратио: 265.234
Сообщения: 5350
Зарегистрирован: Август 6, 2012, 2:11 pm
Откуда: СССР

Флаг страны: СССР

  • Похожие торренты
    Ответы
    Просмотры
    Последнее сообщение

Вернуться в Остальное



Кто сейчас на конференции

Сейчас эту тему просматривают: нет зарегистрированных пользователей и гости: 1

cron
Ресурс не содержит никакой другой информации, кроме описаний отдельных файлов или их групп, имеющихся у некоторых пользователей данного ресурса. Подтверждением наличия данных файлов у пользователя может иногда являться специальный набор значений, представляющих собой результаты применения односторонних хеш-функций к этим файлам или их группам. Данные наборы значений объединяются пользователями в единое целое и могут быть выложены ими вместе с описаниями имеющихся у них файлов. Администрация данного ресурса не имеет физической возможности убедиться, что описания файлов, выложенные нашими пользователями, равно как и созданные ими наборы хешей от файлов, соответствуют реальным файлам имеющимся у пользователей, а не созданы каким-либо иным способом.
cron
Яндекс.Метрика