Ледниковый период: Столкновение неизбежно / Ice Age: Collision Course (2016) WEBRip | Звук с TS

Не вошедшее ни в одну из категорий

Оценка торрента

5
0
Голосов нет
4
0
Голосов нет
3
0
Голосов нет
2
0
Голосов нет
1
0
Голосов нет
 
Всего голосов : 0

 Статистика раздачи 
Размер: 1.37 ГБ   |  Зарегистрирован: Август 26, 2016, 4:40 pm   |   .torrent скачан: 25142 раз
Сидеров: 1519  [ 0 байт/сек ]   Личеров: 372  [ 0 байт/сек ]  

Ледниковый период: Столкновение неизбежно / Ice Age: Collision Course (2016) WEBRip | Звук с TS

Сообщение sergey » Август 26, 2016, 4:40 pm

Ледниковый период: Столкновение неизбежно / Ice Age: Collision Course

Страна: США
Производство: 20th Century Fox Animation, Blue Sky Studios
Год выпуска: 2016
Жанр: мультфильм, фантастика, комедия, приключения, семейный
Продолжительность: 01:34:24

Режиссеры: Майк Тёрмайер, Гален Т. Чу
Авторы сценария: Майкл Дж. Уилсон, Майкл Берг, Йони Бреннер

В ролях: Рэй Романо, Джон Легуизамо, Дэнис Лири, Куин Латифа, Шонн Уильям Скотт, Саймон Пегг, Дженнифер Лопез, Нил Тайсон, Джесси Тайлер Фергюсон

Описание: Отчаянная погоня за неуловимым жёлудем катапультирует Скрата прямо в космос, где он случайно запускает целую серию космических событий. Именно они изменят весь мир Ледникового периода и станут реальной угрозой для него. Чтобы спастись, Сид, Мэнни, Диего и остальные звери должны покинуть свои дома, отправиться в забавное и захватывающее приключение в экзотические новые земли и встретиться со множеством красочных новых персонажей...



Перевод: Профессиональный (полное дублирование) | Звук с TS
Субтитры: нет

Качество: WEBRip
Формат: АVI
Видео кодек: XviD
Аудио кодек: АС3
Видео: 720x400 (16:9), 29.970 fps, XviD ~1 620 kbps avg
Аудио: 48.0 kHz, AC3 Dolby Digital, 2/0 (L,R) ch, ~384 kbps

Бюджет: $105 000 000
Дата премьеры (мир): 19 июня 2016
Дата премьеры (РФ): 14 июля 2016, «Двадцатый Век Фокс СНГ»

ПРИМЕЧАНИЕ: ПРИСУТСТВУЕТ РЕКЛАМА!

General
Complete name : Ice.Age.Collision.Course.2016.Dt.WEBRip.14OOMB_KOSHARA.avi
Format : AVI
Format/Info : Audio Video Interleave
File size : 1.37 GiB
Duration : 1h 33mn
Overall bit rate : 2 096 Kbps
Writing application : VirtualDubMod 1.5.10.2 (build 2540/release)
Writing library : VirtualDubMod build 2540/release
Video #0
ID : 0
Format : MPEG-4 Visual
Format profile : Advanced Simple@L5
Format settings, BVOP : 2
Format settings, QPel : No
Format settings, GMC : No warppoints
Format settings, Matrix : Custom
Codec ID : XVID
Codec ID/Hint : XviD
Duration : 1h 33mn
Bit rate : 1 620 Kbps
Width : 720 pixels
Height : 400 pixels
Display aspect ratio : 16:9
Frame rate : 29.970 fps
Color space : YUV
Chroma subsampling : 4:2:0
Bit depth : 8 bits
Scan type : Progressive
Compression mode : Lossy
Bits/(Pixel*Frame) : 0.188
Stream size : 1.06 GiB (77%)
Writing library : XviD 1.2.1 (UTC 2008-12-04)
Audio #1
ID : 1
Format : AC-3
Format/Info : Audio Coding 3
Mode extension : CM (complete main)
Format settings, Endianness : Big
Codec ID : 2000
Duration : 1h 33mn
Bit rate mode : Constant
Bit rate : 384 Kbps
Channel(s) : 2 channels
Channel positions : Front: L R
Sampling rate : 48.0 KHz
Compression mode : Lossy
Stream size : 257 MiB (18%)
Alignment : Split accross interleaves

   
Торрент: Зарегистрирован [Август 26, 2016, 4:40 pm]
Остальное Скачать торрент Магнет ссылка
Скачать торрент
[ Размер 14.51 КБ / Просмотров 8 ]
Статус:
Проверен
---
.torrent скачан: 25142 раз
Приватный: Нет (DHT включён)
Размер: 1.37 ГБ (1 468 250 112)
   
Аватара пользователя
sergey
 
Раздал: 42.54 ТБ
Скачал: 198.69 ГБ
Ратио: 265.234
Сообщения: 5348
Зарегистрирован: Август 6, 2012, 2:11 pm
Откуда: СССР

Флаг страны: СССР

  • Похожие торренты
    Ответы
    Просмотры
    Последнее сообщение

Вернуться в Остальное



Кто сейчас на конференции

Сейчас эту тему просматривают: нет зарегистрированных пользователей и гости: 1

Ресурс не содержит никакой другой информации, кроме описаний отдельных файлов или их групп, имеющихся у некоторых пользователей данного ресурса. Подтверждением наличия данных файлов у пользователя может иногда являться специальный набор значений, представляющих собой результаты применения односторонних хеш-функций к этим файлам или их группам. Данные наборы значений объединяются пользователями в единое целое и могут быть выложены ими вместе с описаниями имеющихся у них файлов. Администрация данного ресурса не имеет физической возможности убедиться, что описания файлов, выложенные нашими пользователями, равно как и созданные ими наборы хешей от файлов, соответствуют реальным файлам имеющимся у пользователей, а не созданы каким-либо иным способом.
cron
Яндекс.Метрика