Тайная жизнь домашних животных / The Secret Life of Pets (2016) HDTVRip

Мультфильмы

Оценка торрента

5
0
Голосов нет
4
0
Голосов нет
3
0
Голосов нет
2
0
Голосов нет
1
0
Голосов нет
 
Всего голосов : 0

 Статистика раздачи 
Размер: 744.37 МБ   |  Зарегистрирован: Сентябрь 3, 2016, 8:28 am   |   .torrent скачан: 24810 раз
Сидеров: 22738  [ 0 байт/сек ]   Личеров: 852  [ 0 байт/сек ]  

Тайная жизнь домашних животных / The Secret Life of Pets (2016) HDTVRip

Сообщение sergey » Сентябрь 3, 2016, 8:28 am

Информация о фильме
Название: Тайная жизнь домашних животных
Оригинальное название: The Secret Life of Pets
Год выпуска: 2016
Жанр: мультфильм, комедия, семейный
Режиссеры: Ярроу Чейни , Крис Рено
В ролях: Луис С.К. (Max, озвучка), Эрик Стоунстрит (Duke, озвучка), Кевин Харт (Snowball, озвучка), Дженни Слейт (Gidget, озвучка), Элли Кемпер (Katie, озвучка), Альберт Брукс (Tiberius, озвучка), Лэйк Белл (Chloe, озвучка), Дэна Карви (Pops, озвучка), Хэннибал Бёресс (Buddy, озвучка), Бобби Мойнахан (Mel, озвучка), Крис Рено (Norman, озвучка), Стив Куган (Ozone / Reginald, озвучка)

О фильме:
Что делают домашние животные пока хозяева пропадают на работе? С тоской смотрят в окно? Смиренно дремлют на коврике у двери? Как бы не так. Они ведут свою тайную жизнь.



Страна: Япония, США
Студия: Dentsu, Fuji Television Network Inc., Illumination Entertainment, Universal Pictures
Продолжительность: 01:26:25
Перевод: Профессиональный (полное дублирование) | Line

Файл
Формат: AVI
Качество: HDTVRip
Видео: XviD build 73, 656x352 (2.40:1), 23.970 fps, 1064 Kbps (0.154 bit/pixel)
Звук: 48.0 kHz, MP3, 2/0 ch, 128 kbps
Субтитры: Корейские (на надписи)

General
Complete name : Tajnaja.Zhizhj.Domashnih.Zhivotnyh.2016.XviD.745Gb.HDTVRip.by.GeneralFilm.avi
Format : AVI
Format/Info : Audio Video Interleave
File size : 744 MiB
Duration : 1h 26mn
Overall bit rate : 1 204 Kbps
Writing application : VirtualDubMod 1.5.10.3 | http://www.virtualdub-fr.org || (build 2550/release)
Writing library : VirtualDubMod build 2550/release

Video
ID : 0
Format : MPEG-4 Visual
Format profile : Advanced Simple@L5
Format settings, BVOP : 1
Format settings, QPel : No
Format settings, GMC : No warppoints
Format settings, Matrix : Custom
Codec ID : XVID
Codec ID/Hint : XviD
Duration : 1h 26mn
Bit rate : 1 064 Kbps
Width : 656 pixels
Height : 352 pixels
Display aspect ratio : 1.85:1
Frame rate : 29.970 (29970/1000) fps
Color space : YUV
Chroma subsampling : 4:2:0
Bit depth : 8 bits
Scan type : Progressive
Compression mode : Lossy
Bits/(Pixel*Frame) : 0.154
Stream size : 658 MiB (88%)
Writing library : XviD 73

Audio
ID : 1
Format : MPEG Audio
Format version : Version 1
Format profile : Layer 3
Codec ID : 55
Codec ID/Hint : MP3
Duration : 1h 26mn
Bit rate mode : Constant
Bit rate : 128 Kbps
Channel(s) : 2 channels
Sampling rate : 48.0 KHz
Compression mode : Lossy
Stream size : 79.1 MiB (11%)
Alignment : Aligned on interleaves
Interleave, duration : 33 ms (1.00 video frame)
Interleave, preload duratio : 504 ms
Writing library : LAME3.99r
Encoding settings : -m s -V 4 -q 0 -lowpass 17 -b 128






   
Торрент: Зарегистрирован [Сентябрь 3, 2016, 8:28 am]
Мультфильмы Скачать торрент Магнет ссылка Смотреть онлайн
Скачать торрент
[ Размер 15.37 КБ / Просмотров 27 ]
Статус:
Проверен
---
.torrent скачан: 24810 раз
Приватный: Нет (DHT включён)
Размер: 744.37 МБ (780 529 664)
   
Аватара пользователя
sergey
 
Раздал: 42.54 ТБ
Скачал: 198.69 ГБ
Ратио: 265.234
Сообщения: 5343
Зарегистрирован: Август 6, 2012, 2:11 pm
Откуда: СССР

Флаг страны: СССР

  • Похожие торренты
    Ответы
    Просмотры
    Последнее сообщение

Вернуться в Мультфильмы



Кто сейчас на конференции

Сейчас эту тему просматривают: нет зарегистрированных пользователей и гости: 1

cron
Ресурс не содержит никакой другой информации, кроме описаний отдельных файлов или их групп, имеющихся у некоторых пользователей данного ресурса. Подтверждением наличия данных файлов у пользователя может иногда являться специальный набор значений, представляющих собой результаты применения односторонних хеш-функций к этим файлам или их группам. Данные наборы значений объединяются пользователями в единое целое и могут быть выложены ими вместе с описаниями имеющихся у них файлов. Администрация данного ресурса не имеет физической возможности убедиться, что описания файлов, выложенные нашими пользователями, равно как и созданные ими наборы хешей от файлов, соответствуют реальным файлам имеющимся у пользователей, а не созданы каким-либо иным способом.
cron
Яндекс.Метрика