Беги! [01-04 из 04] (2016) WEB-DLRip

Отечественные и зарубежные сериалы

Оценка торрента

5
0
Голосов нет
4
0
Голосов нет
3
0
Голосов нет
2
0
Голосов нет
1
0
Голосов нет
 
Всего голосов : 0

 Статистика раздачи 
Размер: 2.17 ГБ   |  Зарегистрирован: Сентябрь 6, 2016, 7:54 am   |   .torrent скачан: 3215 раз
Сидеров: 317  [ 0 байт/сек ]   Личеров: 18  [ 0 байт/сек ]  

Беги! [01-04 из 04] (2016) WEB-DLRip

Сообщение sergey » Сентябрь 6, 2016, 7:54 am

Информация о фильме
Оригинальное название: Беги!
Год выпуска: 2016
Жанр: Боевик, детектив, криминал
Режиссеры: Андрей Волгин, Максим Кондратенко
В ролях: Павел Прилучный, Денис Шведов, Иван Жидков, Екатерина Редникова, Светлана Смирнова-Марцинкевич, Михаил Трясоруков, Вячеслав Гумеров, Сергей Колос, Александр Кудренко, Татьяна Казючиц, Владимир Крылов, Сергей Харитонов

О фильме:
Младший лейтенант Маркин Николай едет в расположение колонии строгого режима где-то в Сибири. У него секретное задание. Но добраться до колонии он не успевает: в трех километрах от въезда в зону Николай становится свидетелем побега заключенного, Воронкова Дмитрия. Ни секунды не колеблясь, офицер бросается в погоню за преступником. В отличие от заключенного, который явно готовился к побегу – у Николая нет ни карты, ни продуктов, ни оружия. Тем не менее, он упорно следует за беглецом. Так начинается история, достойная сравнений с лучшими картинами и сериалами этого жанра: «Беглец» (“Fugitive”), «Служители закона» («U.S. Marshals») и «Побег» (“Prison break”). Два разных человека – заключенный и служитель закона по воле судьбы переплетают свои жизни воедино. В течение нескольких дней, пока рассказывается наша история, произойдет масса невероятных событий, полностью переворачивающих отношение зрителя к происходящему на экране. В лучших традициях «Подозрительных лиц» (“Usual suspects”) до самого конца истории мы не будем знать, кто же главный злодей и будем подозревать по очереди всех! Но какая же история без любви? В основе сюжета - два друга, ставшие врагами, и красивая женщина между ними... Массу интересных и порой шокирующих открытий предстоит сделать в ходе нашей истории: кто «подставил» и засадил Воронкова за решетку, почему преследователи пытаются убить капитана Маркина, какие документы может прятать обычный заключенный, и почему непримиримые враги «спина к спине» защищают друг друга?.



Страна: Россия
Студия: ООО «Студия Грин Фильм», ООО «ПРИОР Продакшн»
Продолжительность: 4 x ~ 00:45:00
Перевод: Не требуется

Файл
Формат: AVI
Качество: WEB-DLRip
Видео: XviD build 73, 720x400 (16:9), 25.000 fps, ~ 1500 Kbps (~ 0.200 bit/pixel)
Звук: 44.1 kHz, MP3, 2/0 ch, 192 kbps
Субтитры: нет

General
Complete name : Begi.2016.XviD.2.18Gb.WEB-DLRip.by.GeneralFilmSerija.002.avi
Format : AVI
Format/Info : Audio Video Interleave
File size : 556 MiB
Duration : 44mn 56s
Overall bit rate : 1 728 Kbps
Writing application : VirtualDubMod 1.5.10.3 | http://www.virtualdub-fr.org || (build 2550/release)
Writing library : VirtualDubMod build 2550/release

Video
ID : 0
Format : MPEG-4 Visual
Format profile : Advanced Simple@L5
Format settings, BVOP : 1
Format settings, QPel : No
Format settings, GMC : No warppoints
Format settings, Matrix : Custom
Codec ID : XVID
Codec ID/Hint : XviD
Duration : 44mn 56s
Bit rate : 1 527 Kbps
Width : 720 pixels
Height : 400 pixels
Display aspect ratio : 16:9
Frame rate : 25.000 fps
Color space : YUV
Chroma subsampling : 4:2:0
Bit depth : 8 bits
Scan type : Progressive
Compression mode : Lossy
Bits/(Pixel*Frame) : 0.212
Stream size : 491 MiB (88%)
Writing library : XviD 73

Audio
ID : 1
Format : MPEG Audio
Format version : Version 1
Format profile : Layer 3
Codec ID : 55
Codec ID/Hint : MP3
Duration : 44mn 56s
Bit rate mode : Constant
Bit rate : 192 Kbps
Channel(s) : 2 channels
Sampling rate : 44.1 KHz
Compression mode : Lossy
Stream size : 61.7 MiB (11%)
Alignment : Split accross interleaves
Interleave, duration : 40 ms (1.00 video frame)
Interleave, preload duratio : 500 ms
Writing library : LAME3.99r
Encoding settings : -m s -V 4 -q 0 -lowpass 18.6 -b 192






   
Торрент: Зарегистрирован [Сентябрь 6, 2016, 7:54 am]
Сериалы Скачать торрент Магнет ссылка Смотреть онлайн
Скачать торрент
[ Размер 11.81 КБ / Просмотров 28 ]
Статус:
Проверен
---
.torrent скачан: 3215 раз
Приватный: Нет (DHT включён)
Размер: 2.17 ГБ (2 331 371 520)
   
Аватара пользователя
sergey
 
Раздал: 42.54 ТБ
Скачал: 198.69 ГБ
Ратио: 265.263
Сообщения: 5358
Зарегистрирован: Август 6, 2012, 2:11 pm
Откуда: СССР

Флаг страны: СССР

  • Похожие торренты
    Ответы
    Просмотры
    Последнее сообщение

Вернуться в Сериалы



Кто сейчас на конференции

Сейчас эту тему просматривают: нет зарегистрированных пользователей и гости: 1

Ресурс не содержит никакой другой информации, кроме описаний отдельных файлов или их групп, имеющихся у некоторых пользователей данного ресурса. Подтверждением наличия данных файлов у пользователя может иногда являться специальный набор значений, представляющих собой результаты применения односторонних хеш-функций к этим файлам или их группам. Данные наборы значений объединяются пользователями в единое целое и могут быть выложены ими вместе с описаниями имеющихся у них файлов. Администрация данного ресурса не имеет физической возможности убедиться, что описания файлов, выложенные нашими пользователями, равно как и созданные ими наборы хешей от файлов, соответствуют реальным файлам имеющимся у пользователей, а не созданы каким-либо иным способом.
cron
Яндекс.Метрика