Поезд в Пусан / Busanhaeng (2016) WEBRip | L

Фильмы в формате WEBRip/Avi и т.д.

Оценка торрента

5
0
Голосов нет
4
0
Голосов нет
3
0
Голосов нет
2
0
Голосов нет
1
0
Голосов нет
 
Всего голосов : 0

 Статистика раздачи 
Размер: 1.45 ГБ   |  Зарегистрирован: Сентябрь 13, 2016, 10:38 am   |   .torrent скачан: 9940 раз
Сидеров: 3154  [ 0 байт/сек ]   Личеров: 173  [ 0 байт/сек ]  

Поезд в Пусан / Busanhaeng (2016) WEBRip | L

Сообщение sergey » Сентябрь 13, 2016, 10:38 am

Информация о фильме
Название: Поезд в Пусан
Оригинальное название: Busanhaeng
Год выхода: 2016
Жанр: ужасы, боевик, триллер
Режиссер: Ён Сан-хо
В ролях: Кон Ю, Ма Дон-сок, Чон Ю-ми, Ким Су-ан, Ким И-сон, Чхве У-щик, Ан Со-хи, Ким Чхан-хван, Чан Хёк-чин, Чон Сок-ён

О фильме: Южную Корею охватывает вспышка зомби-вируса. Отец с маленькой дочерью, проводник с беременной женой и многие другие пытаются добраться до города Пусан. Именно там, как говорят, самое безопасное место в стране, где можно найти защиту от заболевания. Люди садятся на скоростной поезд до Пусана. А поскольку в нём же оказываются заражённые, начинается отчаянная борьба за выживание…


Выпущено: Корея Южная
Продолжительность: 01:58:00
Озвучивание: Любительское (многоголосное) [Колобок & XDUB DORAMA]

Роли озвучивали: den904, DeadSno & Izanami
Перевод: Сергея Скворцова

Примечание: Релиз без рекламы.

Файл
Формат: AVI | XviD
Качество: WEBRip
Видео: 1558 kb/s, 720x384, 29.970 fps
Аудио: AC3, 192 kb/s (2 ch)
Субтитры: отсутствуют

Общее
Полное имя : D:загрузкиBusanhaeng.2O16.MVO.WEBRip.avi
Формат : AVI
Формат/Информация : Audio Video Interleave
Размер файла : 1,45 Гбайт
Продолжительность : 1 ч. 58 м.
Общий поток : 1762 Кбит/сек
Программа кодирования : VirtualDubMod 1.5.10.3 | http://www.virtualdub-fr.org || (build 2550/release)
Библиотека кодирования : VirtualDubMod build 2550/release

Видео
Идентификатор : 0
Формат : MPEG-4 Visual
Профиль формата : Advanced Simple@L5
Параметр BVOP формата : 1
Параметр QPel формата : Нет
Параметр GMC формата : Без точки перехода
Параметр матрицы формата : Default (MPEG)
Идентификатор кодека : XVID
Идентификатор кодека/Подсказка : XviD
Продолжительность : 1 ч. 58 м.
Битрейт : 1558 Кбит/сек
Ширина : 720 пикселей
Высота : 384 пикселя
Соотношение сторон : 1,85:1
Частота кадров : 29,970 кадров/сек
Цветовое пространство : YUV
Субдискретизация насыщенности : 4:2:0
Битовая глубина : 8 бит
Тип развёртки : Прогрессивная
Метод сжатия : С потерями
Бит/(Пиксели*Кадры) : 0.188
Размер потока : 1,28 Гбайт (88%)
Библиотека кодирования : XviD 73

Аудио
Идентификатор : 1
Формат : AC-3
Формат/Информация : Audio Coding 3
Расширение режима : CM (complete main)
Параметр Endianness формата : Big
Идентификатор кодека : 2000
Продолжительность : 1 ч. 58 м.
Вид битрейта : Постоянный
Битрейт : 192 Кбит/сек
Каналы : 2 канала
Расположение каналов : Front: L R
Частота : 48,0 КГц
Битовая глубина : 16 бит
Метод сжатия : С потерями
Размер потока : 162 Мбайт (11%)
Выравнивание : Разделение по промежуткам
Продолжительность промежутка : 33 мс. (1,00 видеокадр)
Время предзагрузки промежутка : 500 мс.





   
Торрент: Зарегистрирован [Сентябрь 13, 2016, 10:38 am]
Видео WEBRip Скачать торрент Магнет ссылка Смотреть онлайн
Скачать торрент
[ Размер 15.21 КБ / Просмотров 5 ]
Статус:
Проверен
---
.torrent скачан: 9940 раз
Приватный: Нет (DHT включён)
Размер: 1.45 ГБ (1 559 654 400)
   
Аватара пользователя
sergey
 
Раздал: 42.54 ТБ
Скачал: 198.69 ГБ
Ратио: 265.234
Сообщения: 5348
Зарегистрирован: Август 6, 2012, 2:11 pm
Откуда: СССР

Флаг страны: СССР

  • Похожие торренты
    Ответы
    Просмотры
    Последнее сообщение

Вернуться в Видео WEBRip



Кто сейчас на конференции

Сейчас эту тему просматривают: нет зарегистрированных пользователей и гости: 1

cron
Ресурс не содержит никакой другой информации, кроме описаний отдельных файлов или их групп, имеющихся у некоторых пользователей данного ресурса. Подтверждением наличия данных файлов у пользователя может иногда являться специальный набор значений, представляющих собой результаты применения односторонних хеш-функций к этим файлам или их группам. Данные наборы значений объединяются пользователями в единое целое и могут быть выложены ими вместе с описаниями имеющихся у них файлов. Администрация данного ресурса не имеет физической возможности убедиться, что описания файлов, выложенные нашими пользователями, равно как и созданные ими наборы хешей от файлов, соответствуют реальным файлам имеющимся у пользователей, а не созданы каким-либо иным способом.
cron
Яндекс.Метрика