Пришельцы 3: Взятие Бастилии / Les Visiteurs: La Revolution (2016) HDRip-AVC | iTunes

Фильмы в формате DVD

Оценка торрента

5
0
Голосов нет
4
0
Голосов нет
3
0
Голосов нет
2
0
Голосов нет
1
0
Голосов нет
 
Всего голосов : 0

 Статистика раздачи 
Размер: 1.41 ГБ   |  Зарегистрирован: Сентябрь 15, 2016, 8:18 am   |   .torrent скачан: 1377 раз
Сидеров: 164  [ 0 байт/сек ]   Личеров: 10  [ 0 байт/сек ]  

Пришельцы 3: Взятие Бастилии / Les Visiteurs: La Revolution (2016) HDRip-AVC | iTunes

Сообщение sergey » Сентябрь 15, 2016, 8:18 am

Информация о фильме
Название: Пришельцы 3: Взятие Бастилии
Оригинальное название: Les Visiteurs: La Revolution
Год выхода: 2016
Жанр: Комедия
Режиссер: Жан-Мари Пуаре
В ролях: Кристиан Клавье, Жан Рено, Франк Дюбоск, Карин Вьяр, Сильви Тестю, Мари-Анн Шазель, Эри Абиттан, Алекс Лутс, Стефани де Крэенкур, Вероника Буланжер

О фильме:
Легендарные и любимые миллионами комедии «Пришельцы» и «Пришельцы 2: Коридоры времени» получили свое продолжение. Заключительная часть трилогии будет посвящена приключениям героев Жана Рено и Кристиана Клавье во времени, и на этот раз они попадут в одну из самых ярких эпох – время Великой Французской Революции. «Тот самый» качественный французский юмор, по которому скучали, блестящий актерский состав, пронизанный изящной иронией сценарий дают полное основание полагать, что современное прочтение культовых французских картин не оставит равнодушными ценителей жанра, поклонников легендарных актеров и всех любителей первоклассного европейского кино.



Выпущено:Франция, Gaumont, Ouille Productions, Nexus Factory
Продолжительность: 01:49:29
Перевод: Дублированный [iTunes Russia]

Файл
Кодек: х264
Качество: HDRip-AVC
Видео: MPEG-4 AVC, 1458 Мбит/с, 720x302
Аудио: Русский (AC3, 6 ch, 384 Кбит/с)
Субтитры: Французские форс

Общее
Уникальный идентификатор : 250521921045728930073798921263549716068 (0xBC78C4569F174AB7A69893E662271664)
Полное имя : D:TempLes.Visiteurs.La.Revolution.2016.HDRip-AVC by Vovan366.mkv
Формат : Matroska
Версия формата : Version 4 / Version 2
Размер файла : 1,41 Гбайт
Продолжительность : 1 ч. 49 м.
Общий поток : 1842 Кбит/сек
Название фильма : Les.Visiteurs.La.Revolution.2016.HDRip-AVC by Vovan366
Дата кодирования : UTC 2016-09-14 13:55:28
Программа кодирования : mkvmerge v9.4.2 ('So High') 64bit
Библиотека кодирования : libebml v1.3.4 + libmatroska v1.4.5
DURATION : 01:49:27.488000000
NUMBER_OF_FRAMES : 205234
NUMBER_OF_BYTES : 315239424
_STATISTICS_WRITING_APP : mkvmerge v9.4.2 ('So High') 64bit
_STATISTICS_WRITING_DATE_UTC : 2016-09-14 13:55:28
_STATISTICS_TAGS : BPS DURATION NUMBER_OF_FRAMES NUMBER_OF_BYTES

Видео
Идентификатор : 1
Формат : AVC
Формат/Информация : Advanced Video Codec
Профиль формата : High@L4.1
Параметр CABAC формата : Да
Параметр ReFrames формата : 10 кадров
Идентификатор кодека : V_MPEG4/ISO/AVC
Продолжительность : 1 ч. 49 м.
Битрейт : 1458 Кбит/сек
Ширина : 720 пикселей
Высота : 302 пикселя
Соотношение сторон : 2,40:1
Режим частоты кадров : Постоянный
Частота кадров : 24,000 кадра/сек
Цветовое пространство : YUV
Субдискретизация насыщенности : 4:2:0
Битовая глубина : 8 бит
Тип развёртки : Прогрессивная
Бит/(Пиксели*Кадры) : 0.279
Размер потока : 1,09 Гбайт (77%)
Заголовок : by Vovan366
Библиотека кодирования : x264 core 146 r2538 121396c
Настройки программы : cabac=1 / ref=10 / deblock=1:-3:-3 / analyse=0x3:0x113 / me=umh / subme=11 / psy=1 / psy_rd=1.00:0.05 / mixed_ref=1 / me_range=48 / chroma_me=1 / trellis=2 / 8x8dct=1 / cqm=0 / deadzone=21,11 / fast_pskip=0 / chroma_qp_offset=-3 / threads=6 / lookahead_threads=1 / sliced_threads=0 / nr=0 / decimate=0 / interlaced=0 / bluray_compat=0 / constrained_intra=0 / bframes=10 / b_pyramid=2 / b_adapt=2 / b_bias=0 / direct=3 / weightb=1 / open_gop=0 / weightp=2 / keyint=240 / keyint_min=23 / scenecut=40 / intra_refresh=0 / rc_lookahead=40 / rc=2pass / mbtree=0 / bitrate=1458 / ratetol=1.0 / qcomp=0.60 / qpmin=0 / qpmax=69 / qpstep=4 / cplxblur=20.0 / qblur=0.5 / vbv_maxrate=14000 / vbv_bufsize=14000 / nal_hrd=none / filler=0 / ip_ratio=1.40 / pb_ratio=1.30 / aq=1:1.00
Default : Да
Forced : Нет
Основные цвета : BT.709
Характеристики трансфера : BT.709
Коэффициенты матрицы : BT.709

Аудио
Идентификатор : 2
Формат : AC-3
Формат/Информация : Audio Coding 3
Расширение режима : CM (complete main)
Параметр Endianness формата : Big
Идентификатор кодека : A_AC3
Продолжительность : 1 ч. 49 м.
Вид битрейта : Постоянный
Битрейт : 384 Кбит/сек
Каналы : 6 каналов
Расположение каналов : Front: L C R, Side: L R, LFE
Частота : 48,0 КГц
Битовая глубина : 16 бит
Метод сжатия : С потерями
Размер потока : 301 Мбайт (21%)
Язык : Russian
Default : Да
Forced : Нет

Текст
Идентификатор : 3
Формат : UTF-8
Идентификатор кодека : S_TEXT/UTF8
Идентификатор кодека/Информация : UTF-8 Plain Text
Заголовок : French Forced
Язык : French
Default : Нет
Forced : Нет

Меню
00:00:00.000 : en:00:00:00.000
00:11:30.208 : en:00:11:30.208
00:18:02.250 : en:00:18:02.250
00:27:02.792 : en:00:27:02.792
00:36:10.708 : en:00:36:10.708
00:40:20.875 : en:00:40:20.875
00:52:28.208 : en:00:52:28.208
00:57:19.208 : en:00:57:19.208
01:07:22.042 : en:01:07:22.042
01:23:56.667 : en:01:23:56.667
01:36:39.750 : en:01:36:39.750
01:44:40.542 : en:01:44:40.542



   
Торрент: Зарегистрирован [Сентябрь 15, 2016, 8:18 am]
Видео DVD Скачать торрент Магнет ссылка Смотреть онлайн
Скачать торрент
[ Размер 14.79 КБ / Просмотров 7 ]
Статус:
Проверен
---
.torrent скачан: 1377 раз
Приватный: Нет (DHT включён)
Размер: 1.41 ГБ (1 512 932 400)
   
Аватара пользователя
sergey
 
Раздал: 42.54 ТБ
Скачал: 198.69 ГБ
Ратио: 265.234
Сообщения: 5347
Зарегистрирован: Август 6, 2012, 2:11 pm
Откуда: СССР

Флаг страны: СССР

  • Похожие торренты
    Ответы
    Просмотры
    Последнее сообщение

Вернуться в Видео DVD



Кто сейчас на конференции

Сейчас эту тему просматривают: нет зарегистрированных пользователей и гости: 1

Ресурс не содержит никакой другой информации, кроме описаний отдельных файлов или их групп, имеющихся у некоторых пользователей данного ресурса. Подтверждением наличия данных файлов у пользователя может иногда являться специальный набор значений, представляющих собой результаты применения односторонних хеш-функций к этим файлам или их группам. Данные наборы значений объединяются пользователями в единое целое и могут быть выложены ими вместе с описаниями имеющихся у них файлов. Администрация данного ресурса не имеет физической возможности убедиться, что описания файлов, выложенные нашими пользователями, равно как и созданные ими наборы хешей от файлов, соответствуют реальным файлам имеющимся у пользователей, а не созданы каким-либо иным способом.
cron
Яндекс.Метрика