Тарзан. Легенда / The Legend of Tarzan (2016) WEB-DLRip

Фильмы в формате WEBRip/Avi и т.д.

Оценка торрента

5
0
Голосов нет
4
0
Голосов нет
3
0
Голосов нет
2
0
Голосов нет
1
0
Голосов нет
 
Всего голосов : 0

 Статистика раздачи 
Размер: 1.45 ГБ   |  Зарегистрирован: Сентябрь 22, 2016, 4:44 pm   |   .torrent скачан: 4899 раз
Сидеров: 696  [ 0 байт/сек ]   Личеров: 97  [ 0 байт/сек ]  

Тарзан. Легенда / The Legend of Tarzan (2016) WEB-DLRip

Сообщение sergey » Сентябрь 22, 2016, 4:44 pm

Информация о фильме
Название: Тарзан. Легенда
Оригинальное название: The Legend of Tarzan
Год выпуска: 2016
Жанр: боевик, драма, мелодрама, приключения
Режиссер: Дэвид Йэтс
В ролях: Александр Скарсгард (John Clayton / Tarzan), Марго Робби (Jane Clayton), Сэмюэл Л. Джексон (George Washington Williams), Кристоф Вальц (Leon Rom), Джимон Хонсу (Chief Mbonga), Джим Бродбент (Prime Minister), Каспер Крамп (Major Kerckhover), Хэдли Фрайзер (Tarzan's Father), Женевьев О’Рейли (Tarzan's Mother), Саймон Расселл Бил (Mr. Frum), Рори Дж. Сапер (Young Tarzan (18 Years)), Кристиан Стивенс (Young Tarzan (5 Years))

О фильме:
Приспособившийся к жизни в Лондоне Тарзан возвращается в свой бывший дом, в джунгли, чтобы разобраться в том, что происходит в лагере горнодобывающей компании.



Страна: США, Великобритания, Канада
Студия: Dark Horse Entertainment, Jerry Weintraub Productions, Riche Productions, Village Roadshow Pictures
Продолжительность: 01:49:57
Перевод: Профессиональный (полное дублирование) | iTunes

Файл
Формат: AVI
Качество: BDRip
Видео: XviD build 73, 688x288 (2.40:1), 23.976 fps, 1501 Kbps (0.316 bit/pixel)
Звук: 48.0 kHz, AC3 Dolby Digital, 5/1 (L C R, Side: L R, LFE) ch, 384 kbps
Субтитры: Русские (на надписи и прочее) - форсированные

General
Complete name : Tarzan.Legenda.2016.XviD.WEB-DLRip.by.GeneralFilm.avi
Format : AVI
Format/Info : Audio Video Interleave
File size : 1.45 GiB
Duration : 1h 49mn
Overall bit rate : 1 894 Kbps
Writing application : VirtualDubMod 1.5.10.3 | http://www.virtualdub-fr.org || (build 2550/release)
Writing library : VirtualDubMod build 2550/release

Video
ID : 0
Format : MPEG-4 Visual
Format profile : Advanced Simple@L5
Format settings, BVOP : 1
Format settings, QPel : No
Format settings, GMC : No warppoints
Format settings, Matrix : Custom
Codec ID : XVID
Codec ID/Hint : XviD
Duration : 1h 49mn
Bit rate : 1 501 Kbps
Width : 688 pixels
Height : 288 pixels
Display aspect ratio : 2.40:1
Frame rate : 23.976 (23976/1000) fps
Color space : YUV
Chroma subsampling : 4:2:0
Bit depth : 8 bits
Scan type : Progressive
Compression mode : Lossy
Bits/(Pixel*Frame) : 0.316
Stream size : 1.15 GiB (79%)
Writing library : XviD 73

Audio
ID : 1
Format : AC-3
Format/Info : Audio Coding 3
Mode extension : CM (complete main)
Format settings, Endianness : Big
Codec ID : 2000
Duration : 1h 49mn
Bit rate mode : Constant
Bit rate : 384 Kbps
Channel(s) : 6 channels
Channel positions : Front: L C R, Side: L R, LFE
Sampling rate : 48.0 KHz
Frame rate : 31.250 fps (1536 spf)
Compression mode : Lossy
Stream size : 302 MiB (20%)
Alignment : Split accross interleaves
Interleave, duration : 42 ms (1.00 video frame)
Interleave, preload duratio : 500 ms





   
Торрент: Зарегистрирован [Сентябрь 22, 2016, 4:44 pm]
Видео WEBRip Скачать торрент Магнет ссылка Смотреть онлайн
Скачать торрент
[ Размер 15.34 КБ / Просмотров 1 ]
Статус:
Проверен
---
.torrent скачан: 4899 раз
Приватный: Нет (DHT включён)
Размер: 1.45 ГБ (1 562 019 840)
   
Аватара пользователя
sergey
 
Раздал: 42.54 ТБ
Скачал: 198.69 ГБ
Ратио: 265.234
Сообщения: 5347
Зарегистрирован: Август 6, 2012, 2:11 pm
Откуда: СССР

Флаг страны: СССР

  • Похожие торренты
    Ответы
    Просмотры
    Последнее сообщение

Вернуться в Видео WEBRip



Кто сейчас на конференции

Сейчас эту тему просматривают: нет зарегистрированных пользователей и гости: 1

Ресурс не содержит никакой другой информации, кроме описаний отдельных файлов или их групп, имеющихся у некоторых пользователей данного ресурса. Подтверждением наличия данных файлов у пользователя может иногда являться специальный набор значений, представляющих собой результаты применения односторонних хеш-функций к этим файлам или их группам. Данные наборы значений объединяются пользователями в единое целое и могут быть выложены ими вместе с описаниями имеющихся у них файлов. Администрация данного ресурса не имеет физической возможности убедиться, что описания файлов, выложенные нашими пользователями, равно как и созданные ими наборы хешей от файлов, соответствуют реальным файлам имеющимся у пользователей, а не созданы каким-либо иным способом.
cron
Яндекс.Метрика