Агентство скрытых камер [01-10 из 10] (2016) HDTVRip 720p

Отечественные и зарубежные сериалы

Оценка торрента

5
0
Голосов нет
4
0
Голосов нет
3
0
Голосов нет
2
0
Голосов нет
1
0
Голосов нет
 
Всего голосов : 0

 Статистика раздачи 
Размер: 6.01 ГБ   |  Зарегистрирован: Сентябрь 24, 2016, 8:49 am   |   .torrent скачан: 1038 раз
Сидеров: 239  [ 0 байт/сек ]   Личеров: 63  [ 0 байт/сек ]  

Агентство скрытых камер [01-10 из 10] (2016) HDTVRip 720p

Сообщение sergey » Сентябрь 24, 2016, 8:49 am

Информация
Название: Агентсво скрытых камер
Год выпуска: 2016
Жанр: Детектив, криминал
Режиссёр: Слава Падалка, Андрей Канивченко
В ролях: Эдуард Флёров, Антонина Комиссарова, Руслан Корнеков, Антон Филипенко

Описание:
Основатель «Агентства скрытых камер» Михаил Трошин - бывший полковник ФСБ, который уволился в запас после неудачной операции. В каждой серии в его детективное бюро обращаются клиенты, которым угрожает опасность. Ноу-хау Трошина - скрытое наблюдение, которое гораздо эффективнее работы с уликами и допросов, на которых преступники ловко скрывают правду. Агентство располагает техническими средствами, которые подключаются к любому электронному устройству, записывающему изображение или звук. Это позволяет команде Трошина предотвращать преступления и выводить злоумышленников на чистую воду.

Выпущено: Россия, НТВ
Продолжительность: ~ 00:28:00 / Серия
Перевод: Не требуется

Файл
Кодек: MPEG-4 AVC
Контейнер: MKV
Качество: HDTVRip 720p
Видео: MPEG-4 AVC, 1280x720 (16:9), ~ 2800 Кбит/с, 25 кадр/с
Аудио: Русский, Dolby AC3, 48000 Гц, 192 Кбит/с, 2 канала (Стерео) - Оригинал

General
Unique ID : 221600305583971892275191116194772699517 (0xA6B6AA9A9047FD2E81C133F76D2C497D)
Complete name : ACK.e01.2016.HDTVRip.720p.mkv
Format : Matroska
Format version : Version 2
File size : 615 MiB
Duration : 28mn 46s
Overall bit rate : 2 991 Kbps
Encoded date : UTC 2016-09-13 13:22:33
Writing application : mkvmerge v7.9.0 ('Birds') 64bit
Writing library : libebml v1.3.1 + libmatroska v1.4.2

Video
ID : 1
Format : AVC
Format/Info : Advanced Video Codec
Format profile : High@L4.1
Format settings, CABAC : Yes
Format settings, ReFrames : 8 frames
Codec ID : V_MPEG4/ISO/AVC
Duration : 28mn 46s
Bit rate : 2 800 Kbps
Width : 1 280 pixels
Height : 720 pixels
Display aspect ratio : 16:9
Frame rate mode : Constant
Frame rate : 25.000 fps
Color space : YUV
Chroma subsampling : 4:2:0
Bit depth : 8 bits
Scan type : Progressive
Bits/(Pixel*Frame) : 0.122
Stream size : 564 MiB (92%)
Writing library : x264 core 148 r2597 e86f3a1
Encoding settings : cabac=1 / ref=8 / deblock=1:-3:-3 / analyse=0x3:0x113 / me=umh / subme=10 / psy=1 / psy_rd=1.00:0.00 / mixed_ref=1 / me_range=32 / chroma_me=1 / trellis=2 / 8x8dct=1 / cqm=0 / deadzone=21,11 / fast_pskip=0 / chroma_qp_offset=-2 / threads=6 / lookahead_threads=1 / sliced_threads=0 / nr=0 / decimate=0 / interlaced=0 / bluray_compat=0 / constrained_intra=0 / bframes=9 / b_pyramid=2 / b_adapt=2 / b_bias=0 / direct=3 / weightb=1 / open_gop=0 / weightp=2 / keyint=250 / keyint_min=25 / scenecut=40 / intra_refresh=0 / rc_lookahead=40 / rc=2pass / mbtree=0 / bitrate=2800 / ratetol=1.0 / qcomp=0.60 / qpmin=0 / qpmax=69 / qpstep=4 / cplxblur=20.0 / qblur=0.5 / vbv_maxrate=50000 / vbv_bufsize=62500 / nal_hrd=none / filler=0 / ip_ratio=1.40 / pb_ratio=1.30 / aq=1:1.00
Default : Yes
Forced : No

Audio
ID : 2
Format : AC-3
Format/Info : Audio Coding 3
Mode extension : CM (complete main)
Format settings, Endianness : Big
Codec ID : A_AC3
Duration : 28mn 46s
Bit rate mode : Constant
Bit rate : 192 Kbps
Channel(s) : 2 channels
Channel positions : Front: L R
Sampling rate : 48.0 KHz
Bit depth : 16 bits
Compression mode : Lossy
Stream size : 39.5 MiB (6%)
Default : Yes
Forced : No

Автор рипа - ivandubskoj
   
Торрент: Зарегистрирован [Сентябрь 24, 2016, 8:49 am]
Сериалы Скачать торрент Магнет ссылка Смотреть онлайн
Скачать торрент
[ Размер 31.57 КБ / Просмотров 6 ]
Статус:
Проверен
---
.torrent скачан: 1038 раз
Приватный: Нет (DHT включён)
Размер: 6.01 ГБ (6 458 019 050)
   
Аватара пользователя
sergey
 
Раздал: 42.54 ТБ
Скачал: 198.69 ГБ
Ратио: 265.234
Сообщения: 5343
Зарегистрирован: Август 6, 2012, 2:11 pm
Откуда: СССР

Флаг страны: СССР

  • Похожие торренты
    Ответы
    Просмотры
    Последнее сообщение

Вернуться в Сериалы



Кто сейчас на конференции

Сейчас эту тему просматривают: нет зарегистрированных пользователей и гости: 1

Ресурс не содержит никакой другой информации, кроме описаний отдельных файлов или их групп, имеющихся у некоторых пользователей данного ресурса. Подтверждением наличия данных файлов у пользователя может иногда являться специальный набор значений, представляющих собой результаты применения односторонних хеш-функций к этим файлам или их группам. Данные наборы значений объединяются пользователями в единое целое и могут быть выложены ими вместе с описаниями имеющихся у них файлов. Администрация данного ресурса не имеет физической возможности убедиться, что описания файлов, выложенные нашими пользователями, равно как и созданные ими наборы хешей от файлов, соответствуют реальным файлам имеющимся у пользователей, а не созданы каким-либо иным способом.
cron
Яндекс.Метрика