Дуэлянт (2016) CAMRip

Не вошедшее ни в одну из категорий

Оценка торрента

5
0
Голосов нет
4
0
Голосов нет
3
0
Голосов нет
2
0
Голосов нет
1
0
Голосов нет
 
Всего голосов : 0

 Статистика раздачи 
Размер: 1.37 ГБ   |  Зарегистрирован: Октябрь 1, 2016, 1:42 pm   |   .torrent скачан: 54856 раз
Сидеров: 3966  [ 0 байт/сек ]   Личеров: 479  [ 0 байт/сек ]  

Дуэлянт (2016) CAMRip

Сообщение sergey » Октябрь 1, 2016, 1:42 pm

Дуэлянт

Страна: Россия
Производство: Нон-стоп Продакшн
Год выпуска: 2016
Жанр: драма
Продолжительность: 01:41:57

Режиссер: Алексей Мизгирёв
Автор сценария: Алексей Мизгирёв

В ролях: Пётр Фёдоров, Владимир Машков, Юлия Хлынина, Франциска Петри, Мартин Вуттке, Сергей Гармаш, Павел Табаков, Пьер Бурель

Описание: В центре сюжета профессиональный дуэлянт, который зарабатывает на жизнь, участвуя в поединках за других людей...



Перевод: не требуется (оригинал)
Субтитры: нет

Качество: CAMRip
Формат: АVI
Видео кодек: XviD
Аудио кодек: АС3
Видео: 720x320 (2.25:1), 29.970 fps, XviD ~1 643 kbps avg
Аудио: 48.0 kHz, AC3 Dolby Digital, 2/0 (L,R) ch, ~192 kbps

Дата премьеры (мир): 9 сентября 2016
Дата премьеры (РФ): 29 сентября 2016, «WDSSPR»



General
Complete name : DueLiyant.21O6.O.CAMRip.14OOMB_KOSHARA.avi
Format : AVI
Format/Info : Audio Video Interleave
File size : 1.37 GiB
Duration : 1h 41mn
Overall bit rate : 1 920 Kbps
Writing application : VirtualDubMod 1.5.10.2 (build 2540/release)
Writing library : VirtualDubMod build 2540/release

Video
ID : 0
Format : MPEG-4 Visual
Format profile : Advanced Simple@L5
Format settings, BVOP : 2
Format settings, QPel : No
Format settings, GMC : No warppoints
Format settings, Matrix : Custom
Codec ID : XVID
Codec ID/Hint : XviD
Duration : 1h 41mn
Bit rate : 1 643 Kbps
Width : 720 pixels
Height : 320 pixels
Display aspect ratio : 2.25:1
Frame rate : 29.970 fps
Color space : YUV
Chroma subsampling : 4:2:0
Bit depth : 8 bits
Scan type : Progressive
Compression mode : Lossy
Bits/(Pixel*Frame) : 0.238
Stream size : 1.17 GiB (86%)
Writing library : XviD 1.2.1 (UTC 2008-12-04)

Audio
ID : 1
Format : AC-3
Format/Info : Audio Coding 3
Mode extension : CM (complete main)
Format settings, Endianness : Big
Codec ID : 2000
Duration : 1h 41mn
Bit rate mode : Constant
Bit rate : 192 Kbps
Channel(s) : 2 channels
Channel positions : Front: L R
Sampling rate : 48.0 KHz
Bit depth : 16 bits
Compression mode : Lossy
Stream size : 140 MiB (10%)
Alignment : Split accross interleaves
   
Торрент: Зарегистрирован [Октябрь 1, 2016, 1:42 pm]
Остальное Скачать торрент Магнет ссылка
Скачать торрент
[ Размер 14.37 КБ / Просмотров 9 ]
Статус:
Проверен
---
.torrent скачан: 54856 раз
Приватный: Нет (DHT включён)
Размер: 1.37 ГБ (1 467 852 800)
   
Аватара пользователя
sergey
 
Раздал: 42.54 ТБ
Скачал: 198.69 ГБ
Ратио: 265.234
Сообщения: 5352
Зарегистрирован: Август 6, 2012, 2:11 pm
Откуда: СССР

Флаг страны: СССР

  • Похожие торренты
    Ответы
    Просмотры
    Последнее сообщение

Вернуться в Остальное



Кто сейчас на конференции

Сейчас эту тему просматривают: нет зарегистрированных пользователей и гости: 1

Ресурс не содержит никакой другой информации, кроме описаний отдельных файлов или их групп, имеющихся у некоторых пользователей данного ресурса. Подтверждением наличия данных файлов у пользователя может иногда являться специальный набор значений, представляющих собой результаты применения односторонних хеш-функций к этим файлам или их группам. Данные наборы значений объединяются пользователями в единое целое и могут быть выложены ими вместе с описаниями имеющихся у них файлов. Администрация данного ресурса не имеет физической возможности убедиться, что описания файлов, выложенные нашими пользователями, равно как и созданные ими наборы хешей от файлов, соответствуют реальным файлам имеющимся у пользователей, а не созданы каким-либо иным способом.
cron
Яндекс.Метрика