Тоннель / Teo-neol (2016) HDRip | L2

Фильмы в формате DVD

Оценка торрента

5
0
Голосов нет
4
0
Голосов нет
3
0
Голосов нет
2
0
Голосов нет
1
0
Голосов нет
 
Всего голосов : 0

 Статистика раздачи 
Размер: 1.45 ГБ   |  Зарегистрирован: Октябрь 4, 2016, 9:48 pm   |   .torrent скачан: 5759 раз
Сидеров: 466  [ 0 байт/сек ]   Личеров: 131  [ 0 байт/сек ]  

Тоннель / Teo-neol (2016) HDRip | L2

Сообщение sergey » Октябрь 4, 2016, 9:48 pm

Тоннель / Teo-neol

Страна: Южная Корея
Производство: Another Sunday, BA Entertainment, History E&M
Год выпуска: 2016
Жанр: драма
Продолжительность: 02:06:27

Режиссер: Ким Сон-хун
Автор сценария: Ким Сон-хун

В ролях: Пэ Ду-на, Ха Джон-у, О Даль-су, Е Су-джон, Чхве Гви-хва, Ким Джон-су

Описание: Из-за непрочной конструкции происходит обрушение тоннеля, и мужчина оказывается под завалами...



Перевод: Любительский (двухголосый, закадровый) | Green TEA
Субтитры: нет

Качество: HDRip
Формат: АVI
Видео кодек: XviD
Аудио кодек: АС3
Видео: 720x304 (2.35:1), 23.976 fps, XviD ~1 442 kbps avg, 0.275 bit/pixel
Аудио: 48 kHz, AC3 Dolby Digital, 2/0 (L,R) ch, ~192 kbps

Дата премьеры (мир): 10 августа 2016



General
Полное имя : Тоннель.avi
Формат : AVI
Формат/Информация : Audio Video Interleave
Размер файла : 1,45 Гбайт
Продолжительность : 2 ч. 6 м.
Общий поток : 1643 Кбит/сек
Программа кодирования : VirtualDubMod 1.5.10.3 | (build 2550/release)
Библиотека кодирования : VirtualDubMod build 2550/release

Видео
Идентификатор : 0
Формат : MPEG-4 Visual
Профиль формата : Advanced Simple@L5
Параметр BVOP формата : 1
Параметр QPel формата : Нет
Параметр GMC формата : Без точки перехода
Параметр матрицы формата : Default (H.263)
Идентификатор кодека : XVID
Идентификатор кодека/Подсказка : XviD
Продолжительность : 2 ч. 6 м.
Битрейт : 1442 Кбит/сек
Ширина : 720 пикселей
Высота : 304 пикселя
Соотношение сторон : 2,35:1
Частота кадров : 23,976 (23976/1000) кадра/сек
Цветовое пространство : YUV
Субдискретизация насыщенности : 4:2:0
Битовая глубина : 8 бит
Тип развёртки : Прогрессивная
Метод сжатия : С потерями
Бит/(Пиксели*Кадры) : 0.275
Размер потока : 1,27 Гбайт (88%)
Библиотека кодирования : XviD 1.2.1 (UTC 2008-12-04)

Аудио
Идентификатор : 1
Формат : AC-3
Формат/Информация : Audio Coding 3
Расширение режима : CM (complete main)
Параметр Endianness формата : Big
Идентификатор кодека : 2000
Продолжительность : 2 ч. 6 м.
Вид битрейта : Постоянный
Битрейт : 192 Кбит/сек
Каналы : 2 канала
Расположение каналов : Front: L R
Частота : 48,0 КГц
Частота кадров : 31,250 кадров/сек (1536 spf)
Метод сжатия : С потерями
Размер потока : 174 Мбайт (12%)
Выравнивание : Разделение по промежуткам
Продолжительность промежутка : 42 мс. (1,00 видеокадр)
Время предзагрузки промежутка : 500 мс.
   
Торрент: Зарегистрирован [Октябрь 4, 2016, 9:48 pm]
Видео DVD Скачать торрент Магнет ссылка Смотреть онлайн
Скачать торрент
[ Размер 15.32 КБ / Просмотров 14 ]
Статус:
Проверен
---
.torrent скачан: 5759 раз
Приватный: Нет (DHT включён)
Размер: 1.45 ГБ (1 558 581 248)
   
Аватара пользователя
sergey
 
Раздал: 42.54 ТБ
Скачал: 198.69 ГБ
Ратио: 265.234
Сообщения: 5347
Зарегистрирован: Август 6, 2012, 2:11 pm
Откуда: СССР

Флаг страны: СССР

  • Похожие торренты
    Ответы
    Просмотры
    Последнее сообщение

Вернуться в Видео DVD



Кто сейчас на конференции

Сейчас эту тему просматривают: нет зарегистрированных пользователей и гости: 1

Ресурс не содержит никакой другой информации, кроме описаний отдельных файлов или их групп, имеющихся у некоторых пользователей данного ресурса. Подтверждением наличия данных файлов у пользователя может иногда являться специальный набор значений, представляющих собой результаты применения односторонних хеш-функций к этим файлам или их группам. Данные наборы значений объединяются пользователями в единое целое и могут быть выложены ими вместе с описаниями имеющихся у них файлов. Администрация данного ресурса не имеет физической возможности убедиться, что описания файлов, выложенные нашими пользователями, равно как и созданные ими наборы хешей от файлов, соответствуют реальным файлам имеющимся у пользователей, а не созданы каким-либо иным способом.
cron
Яндекс.Метрика