Фантазм 5 / Phantasm: Ravager (2016) WEB-DLRip | L1

Фильмы в формате WEBRip/Avi и т.д.

Оценка торрента

5
0
Голосов нет
4
0
Голосов нет
3
0
Голосов нет
2
0
Голосов нет
1
0
Голосов нет
 
Всего голосов : 0

 Статистика раздачи 
Размер: 1.19 ГБ   |  Зарегистрирован: Октябрь 6, 2016, 9:09 am   |   .torrent скачан: 7716 раз
Сидеров: 919  [ 0 байт/сек ]   Личеров: 50  [ 0 байт/сек ]  

Фантазм 5 / Phantasm: Ravager (2016) WEB-DLRip | L1

Сообщение sergey » Октябрь 6, 2016, 9:09 am

Информация о фильме
Название: Фантазм 5
Оригинальное название: Phantasm: Ravager
Год выпуска: 2016
Страна: США
Жанр: ужасы, фэнтези

Перевод: Любительский одноголосый [Xixidok]
Примечание: Присутствует голосовая реклама! (в начале и в конце фильма, пельмешки + онлайн-кинотеатр)
Продолжительность: 01:25:28
Режиссер: Дэвид Хартман
В ролях: Рэджи Бэннистер (Reggie), А. Майкл Болдуин (Mike), Кэти Лестер (Lady in Lavender), Билл Торнбери (Jody), Энгус Скримм (The Tall Man), Дэниэл Швайгер (Thief), Дэниэл Робак (Demeter), Джей Олива (Hooded Dwarf), Глория Линн Генри (Rocky), Кин Окада (Nurse), Jonathan Sims (Steampunk Gravedigger)

Описание:
Реджи и Майк сомневаются, что все, что с ними происходило, было на самом деле, и все это просто игры разума. Но как это может происходить одновременно у всех в голове...
Рейтинг:

Качество: WEB-DLRip
Формат: AVI
Видео: XviD, 720x400 (16:9), 1594 kbps, 23,976 fps, 0,231 bpp
Аудио: AC3 / 5.1 / 48 kHz / 384 kbps /
Сэмпл

General
Complete name : E:Phantasm.Ravager.2016.WEB-DLRip.XviD.AC3.L1.avi
Format : AVI
Format/Info : Audio Video Interleave
File size : 1.19 GiB
Duration : 1 h 25 min
Overall bit rate : 1 988 kb/s
Movie name : Phantasm.Ravager.2016.WEB-DL.XviD.AC3-FGT
Writing application : VirtualDubMod 1.5.10.1 (build 2366/release)
Writing library : VirtualDubMod build 2366/release
Comment : Phantasm.Ravager.2016.WEB-DL.XviD.AC3-FGT

Video
ID : 0
Format : MPEG-4 Visual
Format profile : Simple@L5
Format settings, BVOP : No
Format settings, QPel : No
Format settings, GMC : No warppoints
Format settings, Matrix : Default (H.263)
Codec ID : XVID
Codec ID/Hint : XviD
Duration : 1 h 25 min
Bit rate : 1 595 kb/s
Width : 720 pixels
Height : 400 pixels
Display aspect ratio : 16:9
Frame rate : 23.976 FPS
Color space : YUV
Chroma subsampling : 4:2:0
Bit depth : 8 bits
Scan type : Progressive
Compression mode : Lossy
Bits/(Pixel*Frame) : 0.231
Stream size : 975 MiB (80%)
Writing library : Lavc57.16.101

Audio
ID : 1
Format : AC-3
Format/Info : Audio Coding 3
Mode extension : CM (complete main)
Format settings, Endianness : Big
Codec ID : 2000
Duration : 1 h 25 min
Bit rate mode : Constant
Bit rate : 384 kb/s
Channel(s) : 6 channels
Channel positions : Front: L C R, Side: L R, LFE
Sampling rate : 48.0 kHz
Frame rate : 31.250 FPS (1536 spf)
Compression mode : Lossy
Stream size : 235 MiB (19%)
Alignment : Split accross interleaves
Interleave, duration : 42 ms (1.00 video frame)
Interleave, preload duration : 512 ms

   
Торрент: Зарегистрирован [Октябрь 6, 2016, 9:09 am]
Видео WEBRip Скачать торрент Магнет ссылка Смотреть онлайн
Скачать торрент
[ Размер 12.62 КБ / Просмотров 11 ]
Статус:
Проверен
---
.torrent скачан: 7716 раз
Приватный: Нет (DHT включён)
Размер: 1.19 ГБ (1 274 421 248)
   
Аватара пользователя
sergey
 
Раздал: 42.54 ТБ
Скачал: 198.69 ГБ
Ратио: 265.234
Сообщения: 5343
Зарегистрирован: Август 6, 2012, 2:11 pm
Откуда: СССР

Флаг страны: СССР

  • Похожие торренты
    Ответы
    Просмотры
    Последнее сообщение

Вернуться в Видео WEBRip



Кто сейчас на конференции

Сейчас эту тему просматривают: нет зарегистрированных пользователей и гости: 1

Ресурс не содержит никакой другой информации, кроме описаний отдельных файлов или их групп, имеющихся у некоторых пользователей данного ресурса. Подтверждением наличия данных файлов у пользователя может иногда являться специальный набор значений, представляющих собой результаты применения односторонних хеш-функций к этим файлам или их группам. Данные наборы значений объединяются пользователями в единое целое и могут быть выложены ими вместе с описаниями имеющихся у них файлов. Администрация данного ресурса не имеет физической возможности убедиться, что описания файлов, выложенные нашими пользователями, равно как и созданные ими наборы хешей от файлов, соответствуют реальным файлам имеющимся у пользователей, а не созданы каким-либо иным способом.
cron
Яндекс.Метрика