Ольга [01-20 из 20] (2016) WEB-DL 720p

Отечественные и зарубежные сериалы

Оценка торрента

5
0
Голосов нет
4
0
Голосов нет
3
0
Голосов нет
2
0
Голосов нет
1
0
Голосов нет
 
Всего голосов : 0

 Статистика раздачи 
Размер: 11.7 ГБ   |  Зарегистрирован: Октябрь 6, 2016, 9:11 am   |   .torrent скачан: 15073 раз
Сидеров: 1806  [ 0 байт/сек ]   Личеров: 3316  [ 0 байт/сек ]  

Ольга [01-20 из 20] (2016) WEB-DL 720p

Сообщение sergey » Октябрь 6, 2016, 9:11 am

Информация о фильме
Оригинальное название: Ольга
Год выпуска: 2016
Жанр: Комедия, драма
Режиссёр: Алексей Нужный, Игорь Волошин
В ролях: Яна Троянова, Василий Кортуков, Алина Алексеева, Ксения Суркова, Сергей Романович, Максим Костромыкин, Фархад Гусейнов, Борис Дергачев, Александр Шам, Александр Никольский

Описание:
Ольга — обычная русская женщина, которая одна «воспитывает» детей от разных браков, отца-алкоголика и бесшабашную сестру. При этом она остаётся жизнерадостной, сохраняет оптимизм и верит в «светлое» будущее.



Выпущено: Россия, Good Story Media
Продолжительность: ~ 00:23:00 / Серия

Файл
Кодек: MPEG-4 AVC
Качество: WEB-DL 720p
Видео: MPEG-4 AVC, 1280x720 (16:9), ~ 3500 Кбит/с, 25 кадр/с
Аудио: Русский, Dolby AC3, 48000 Гц, 192 Кбит/с, 2 канала
Перевод: Не требуется

General
Unique ID : 221839142631026769855702607645303028687 (0xA6E4AA2DE8EB32EC92D7E81BCA5EBBCF)
Complete name : Ol'ga.s01.e01.2016.WEB-DL.720p.mkv
Format : Matroska
Format version : Version 4 / Version 2
File size : 600 MiB
Duration : 22mn 15s
Overall bit rate : 3 770 Kbps
Encoded date : UTC 2016-09-05 21:28:19
Writing application : mkvmerge v7.9.0 ('Birds') 64bit
Writing library : libebml v1.3.1 + libmatroska v1.4.2

Video
ID : 1
Format : AVC
Format/Info : Advanced Video Codec
Format profile : High@L3.1
Format settings, CABAC : Yes
Format settings, ReFrames : 1 frame
Format settings, GOP : M=1, N=12
Codec ID : V_MPEG4/ISO/AVC
Duration : 22mn 15s
Bit rate : 3 503 Kbps
Width : 1 280 pixels
Height : 720 pixels
Display aspect ratio : 16:9
Frame rate mode : Constant
Frame rate : 25.000 fps
Standard : Component
Color space : YUV
Chroma subsampling : 4:2:0
Bit depth : 8 bits
Scan type : Progressive
Bits/(Pixel*Frame) : 0.152
Stream size : 558 MiB (93%)
Language : Russian
Default : Yes
Forced : No
Color range : Limited

Audio
ID : 2
Format : AC-3
Format/Info : Audio Coding 3
Mode extension : CM (complete main)
Format settings, Endianness : Big
Codec ID : A_AC3
Duration : 22mn 15s
Bit rate mode : Constant
Bit rate : 192 Kbps
Channel(s) : 2 channels
Channel positions : Front: L R
Sampling rate : 48.0 KHz
Bit depth : 16 bits
Compression mode : Lossy
Stream size : 30.6 MiB (5%)
Language : Russian
Default : Yes
Forced : No


Релиз от: ivandubskoj
   
Торрент: Зарегистрирован [Октябрь 6, 2016, 9:11 am]
Сериалы Скачать торрент Магнет ссылка Смотреть онлайн
Скачать торрент
[ Размер 60.72 КБ / Просмотров 7 ]
Статус:
Проверен
---
.torrent скачан: 15073 раз
Приватный: Нет (DHT включён)
Размер: 11.7 ГБ (12 567 204 031)
   
Аватара пользователя
sergey
 
Раздал: 42.54 ТБ
Скачал: 198.69 ГБ
Ратио: 265.234
Сообщения: 5343
Зарегистрирован: Август 6, 2012, 2:11 pm
Откуда: СССР

Флаг страны: СССР

  • Похожие торренты
    Ответы
    Просмотры
    Последнее сообщение

Вернуться в Сериалы



Кто сейчас на конференции

Сейчас эту тему просматривают: нет зарегистрированных пользователей и гости: 1

Ресурс не содержит никакой другой информации, кроме описаний отдельных файлов или их групп, имеющихся у некоторых пользователей данного ресурса. Подтверждением наличия данных файлов у пользователя может иногда являться специальный набор значений, представляющих собой результаты применения односторонних хеш-функций к этим файлам или их группам. Данные наборы значений объединяются пользователями в единое целое и могут быть выложены ими вместе с описаниями имеющихся у них файлов. Администрация данного ресурса не имеет физической возможности убедиться, что описания файлов, выложенные нашими пользователями, равно как и созданные ими наборы хешей от файлов, соответствуют реальным файлам имеющимся у пользователей, а не созданы каким-либо иным способом.
cron
Яндекс.Метрика