Вячеслав Быков - 15 лет спустя - 2013 [FLAC, image +.cue, lossless]

Музыка всех стилей и направлений, аудиокниги

Оценка торрента

5
0
Голосов нет
4
0
Голосов нет
3
0
Голосов нет
2
0
Голосов нет
1
0
Голосов нет
 
Всего голосов : 0

 Статистика раздачи 
Размер: 470.37 МБ   |  Зарегистрирован: 18 ноя 2016 12:38   |   .torrent скачан: 3 раз
Сидеров: 4  [ 0 байт/сек ]   Личеров: 7  [ 0 байт/сек ]  

Вячеслав Быков - 15 лет спустя - 2013 [FLAC, image +.cue, lossless]

Сообщение sergey » 18 ноя 2016 12:38

Вячеслав Быков - 15 лет спустя
Год издания: 2013
Страна: Russia [Для просмотра изображения необходимо включить JavaScript]
Жанр: Pop
Продолжительность: 01:06:21Лейбл издания: Квадро-Диск
Страна-выпуска диска: Russia [Для просмотра изображения необходимо включить JavaScript]
Номер по каталогу: KTL13-065Формат: FLAC
Битрейт аудио: Lossless
Тип рипа: image +.cue
[font=Candara]01.Электричка из Москвы(4:13)
02.Любимая моя(4:09)
03.Поздний прохожий(4:07)
04.Девочка моя(5:07)
05.Дом у реки(3:29)
06.Мне на восток(3:39)
07.Девушка у алтаря(4:25)
08.Малыш(3:51)
09.Для неё весь мир(3:33)
10.Cадовник(4:32)
11.Ты приходишь ко мне(3:42)
12.Над городом ночь(3:23)
13.Доброй ночи(3:30)
14.Назову тебя облаком (дуэт с А. Маршалом)(3:24)
15.До восхода ночной звезды (дуэт с А. Маршалом)(3:14)
16.Мой дом (дуэт с А. Маршалом)(4:18)
17.20 лет назад (дуэт с А. Маршалом)(3:45)
Код:
Код: Выделить всё
Exact Audio Copy V1.0 beta 1 from 15. November 2010
EAC extraction logfile from 3. October 2014, 2:03
Вячеслав Быков / 15 лет спустя
Used drive  : PLEXTOR DVDR   PX-760A   Adapter: 4  ID: 2
Read mode               : Secure
Utilize accurate stream : Yes
Defeat audio cache      : Yes
Make use of C2 pointers : No
Read offset correction                      : 30
Overread into Lead-In and Lead-Out          : No
Fill up missing offset samples with silence : Yes
Delete leading and trailing silent blocks   : No
Null samples used in CRC calculations       : Yes
Used interface                              : Native Win32 interface for Win NT & 2000
Used output format : Internal WAV Routines
Sample format      : 44.100 Hz; 16 Bit; Stereo
TOC of the extracted CD
     Track |   Start  |  Length  | Start sector | End sector
    ---------------------------------------------------------
        1  |  0:00.00 |  4:13.24 |         0    |    18998
        2  |  4:13.24 |  4:08.53 |     18999    |    37651
        3  |  8:22.02 |  4:07.30 |     37652    |    56206
        4  | 12:29.32 |  5:07.02 |     56207    |    79233
        5  | 17:36.34 |  3:29.17 |     79234    |    94925
        6  | 21:05.51 |  3:39.03 |     94926    |   111353
        7  | 24:44.54 |  4:24.57 |    111354    |   131210
        8  | 29:09.36 |  3:50.52 |    131211    |   148512
        9  | 33:00.13 |  3:32.60 |    148513    |   164472
       10  | 36:32.73 |  4:31.43 |    164473    |   184840
       11  | 41:04.41 |  3:41.73 |    184841    |   201488
       12  | 44:46.39 |  3:23.23 |    201489    |   216736
       13  | 48:09.62 |  3:29.41 |    216737    |   232452
       14  | 51:39.28 |  3:24.16 |    232453    |   247768
       15  | 55:03.44 |  3:14.33 |    247769    |   262351
       16  | 58:18.02 |  4:17.55 |    262352    |   281681
       17  | 62:35.57 |  3:45.11 |    281682    |   298567
Range status and errors
Selected range
     Filename M:\FLAC (bruk67)\MP3\Вячеслав Быков - 15 лет спустя (2013) FLAC\Вячеслав Быков - 15 лет спустя.wav
     Peak level 100.0 %
     Extraction speed 0.1 X
     Range quality 100.0 %
     Test CRC B46DE469
     Copy CRC B46DE469
     Copy OK
No errors occurred
AccurateRip summary
Track  1  not present in database
Track  2  not present in database
Track  3  not present in database
Track  4  not present in database
Track  5  not present in database
Track  6  not present in database
Track  7  not present in database
Track  8  not present in database
Track  9  not present in database
Track 10  not present in database
Track 11  not present in database
Track 12  not present in database
Track 13  not present in database
Track 14  not present in database
Track 15  not present in database
Track 16  not present in database
Track 17  not present in database
None of the tracks are present in the AccurateRip database
End of status report

Код:
Код: Выделить всё
REM GENRE Pop
REM DATE 2013
REM DISCID F30F8C11
REM COMMENT "ExactAudioCopy v1.0b1"
PERFORMER "Вячеслав Быков"
TITLE "15 лет спустя"
FILE "Вячеслав Быков - 15 лет спустя.flac" WAVE
  TRACK 01 AUDIO
    TITLE "Электричка из Москвы"
    PERFORMER "Вячеслав Быков"
    INDEX 01 00:00:00
    INDEX 02 02:26:69
  TRACK 02 AUDIO
    TITLE "Любимая моя"
    PERFORMER "Вячеслав Быков"
    INDEX 00 04:11:24
    INDEX 01 04:13:24
  TRACK 03 AUDIO
    TITLE "Поздний прохожий"
    PERFORMER "Вячеслав Быков"
    INDEX 00 08:20:02
    INDEX 01 08:22:02
  TRACK 04 AUDIO
    TITLE "Девочка моя"
    PERFORMER "Вячеслав Быков"
    INDEX 00 12:27:32
    INDEX 01 12:29:32
  TRACK 05 AUDIO
    TITLE "Дом у реки"
    PERFORMER "Вячеслав Быков"
    INDEX 00 17:34:34
    INDEX 01 17:36:34
  TRACK 06 AUDIO
    TITLE "Мне на восток"
    PERFORMER "Вячеслав Быков"
    INDEX 00 21:03:51
    INDEX 01 21:05:51
  TRACK 07 AUDIO
    TITLE "Девушка у алтаря"
    PERFORMER "Вячеслав Быков"
    INDEX 00 24:42:54
    INDEX 01 24:44:54
    INDEX 02 24:45:73
    INDEX 03 24:55:18
    INDEX 04 25:11:18
    INDEX 05 25:31:18
    INDEX 06 25:47:18
    INDEX 07 26:03:18
    INDEX 08 26:23:18
    INDEX 09 26:39:18
    INDEX 10 26:59:18
    INDEX 11 27:15:18
    INDEX 12 27:35:18
    INDEX 13 27:51:18
    INDEX 14 28:11:18
    INDEX 15 28:27:18
    INDEX 16 28:47:18
  TRACK 08 AUDIO
    TITLE "Малыш"
    PERFORMER "Вячеслав Быков"
    INDEX 00 29:07:36
    INDEX 01 29:09:36
  TRACK 09 AUDIO
    TITLE "Для неё весь мир"
    PERFORMER "Вячеслав Быков"
    INDEX 00 32:58:13
    INDEX 01 33:00:13
  TRACK 10 AUDIO
    TITLE "Садовник"
    PERFORMER "Вячеслав Быков"
    INDEX 00 36:30:73
    INDEX 01 36:32:73
  TRACK 11 AUDIO
    TITLE "Ты приходишь ко мне"
    PERFORMER "Вячеслав Быков"
    INDEX 00 41:02:41
    INDEX 01 41:04:41
  TRACK 12 AUDIO
    TITLE "Над городом ночь"
    PERFORMER "Вячеслав Быков"
    INDEX 00 44:44:39
    INDEX 01 44:46:39
  TRACK 13 AUDIO
    TITLE "Доброй ночи"
    PERFORMER "Вячеслав Быков"
    INDEX 00 48:07:62
    INDEX 01 48:09:62
  TRACK 14 AUDIO
    TITLE "Назову тебя облаком (дуэт с А. Маршалом)"
    PERFORMER "Вячеслав Быков"
    INDEX 00 51:37:28
    INDEX 01 51:39:28
  TRACK 15 AUDIO
    TITLE "До восхода ночной звезды (дуэт с А. Маршалом)"
    PERFORMER "Вячеслав Быков"
    INDEX 00 55:01:44
    INDEX 01 55:03:44
  TRACK 16 AUDIO
    TITLE "Мой дом (дуэт с А. Маршалом)"
    PERFORMER "Вячеслав Быков"
    INDEX 00 58:16:02
    INDEX 01 58:18:02
  TRACK 17 AUDIO
    TITLE "20 лет назад (дуэт с А. Маршалом)"
    PERFORMER "Вячеслав Быков"
    INDEX 00 62:33:57
    INDEX 01 62:35:57
   
Торрент: Зарегистрирован [18 ноя 2016 12:38] Аудио Скачать торрент Магнет ссылка
Скачать торрент
[ Размер 19.4 КБ / Просмотров 92 ]
Статус:
Проверен
---
.torrent скачан: 3 раз
Приватный: Нет (DHT включён)
Размер: 470.37 МБ (493 218 675)
   
Аватара пользователя
sergey
 
Раздал: 42.9 ТБ
Скачал: 206.7 ГБ
Ратио: 258.537
Сообщения: 6966
Зарегистрирован: 06 авг 2012 14:11
Откуда: СССР

Флаг страны: СССР

Вернуться в Аудио



Кто сейчас на конференции

Сейчас эту тему просматривают: нет зарегистрированных пользователей и гости: 1

cron
Яндекс.Метрика проверить доступность сайта