Чудо на Гудзоне / Sully (2016) BDRip 720p | Line

Оценка торрента

5
0
Голосов нет
4
0
Голосов нет
3
0
Голосов нет
2
0
Голосов нет
1
0
Голосов нет
 
Всего голосов : 0

 Статистика раздачи 
Размер: 2.83 ГБ   |  Зарегистрирован: Декабрь 5, 2016, 9:02 am   |   .torrent скачан: 2504 раз
Сидеров: 522  [ 0 байт/сек ]   Личеров: 117  [ 0 байт/сек ]  

Чудо на Гудзоне / Sully (2016) BDRip 720p | Line

Сообщение sergey » Декабрь 5, 2016, 9:02 am

Информация о фильме
Название: Чудо на Гудзоне
Оригинальное название: Sully
Год выхода: 2016
Жанр: Драма, биография
Режиссер: Клинт Иствуд
В ролях: Том Хэнкс, Аарон Экхарт, Валери Махаффей, Делфи Хэррингтон, Майк О`Мэлли, Джейми Шеридан, Анна Ганн, Холт МакКэллани, Ахмед Хуссэйн, Лора Линни

О фильме:
Герой Том Хэнкса - рядовой лётчик-профессионал, которому в сложнейшей ситуации пришлось принять единственно правильное решение, которое оправдалось конечным результатом – посадкой аварийного самолёта с пассажирами на воды Гудзона. Так, своими действиями летчику удалось спасти 155 человеческих жизней! И, тем не менее, сегодня ему приходится доказывать правоту этого выбора, внешне оставаясь спокойным и невозмутимым, несмотря на пережитое потрясение. Он уверен - только спокойствием, выдержкой и хладнокровием можно перевесить чашу мнения членов комиссии на свою сторону – сторону профессионального выбора и действия. И только ему одному известно, как даются и чего стоят эти спокойствие и уравновешенность. Оправданно ли рисковал ли он людскими жизнями? Чтобы их спасти, у него просто не было другого выхода.
[Для просмотра изображения необходимо включить JavaScript]

Страна: США
Студия: FilmNation Entertainment, Flashlight Films, Warner Bros. Pictures, The Kennedy/Marshall Company
Продолжительность: 01:35:50
Перевод: Дублированный | Чистый звук

Файл
Кодек: MPEG-4
Качество: BDRip 720p
Видео: 1280x536, 3201 Kbit/s, 23.976 fps
Звук:
Аудио #01: 48 kHz, AC3, 2.0, 384 Kbps | Дублированный |[Для просмотра изображения необходимо включить JavaScript]
Аудио #02: 48 kHz, AC3, 5.1, 640 kbps | Оригинал |[Для просмотра изображения необходимо включить JavaScript]
Субтитры: Английские

General
Unique ID : 223394958341888715754287407798748925966 (0xA8104DD0F3459B86A63930FD9383500E)
Complete name : G:VideoSully.2016.BDRip.720p.ExKinoRay.mkv
Format : Matroska
Format version : Version 4 / Version 2
File size : 2.83 GiB
Duration : 1 h 35 min
Overall bit rate : 4 227 kb/s
Movie name : Sully.2016 ***селезень***
Encoded date : UTC 2016-12-04 09:38:01
Writing application : mkvmerge v8.3.0 ('Over the Horizon') 64bit
Writing library : libebml v1.3.1 + libmatroska v1.4.2

Video
ID : 1
Format : AVC
Format/Info : Advanced Video Codec
Format profile : High@L4.1
Format settings, CABAC : Yes
Format settings, ReFrames : 9 frames
Codec ID : V_MPEG4/ISO/AVC
Duration : 1 h 35 min
Bit rate : 3 201 kb/s
Width : 1 280 pixels
Height : 536 pixels
Display aspect ratio : 2.40:1
Frame rate mode : Constant
Frame rate : 23.976 (24000/1001) FPS
Color space : YUV
Chroma subsampling : 4:2:0
Bit depth : 8 bits
Scan type : Progressive
Bits/(Pixel*Frame) : 0.195
Stream size : 2.14 GiB (76%)
Title : Sully.2016 ***селезень***
Writing library : x264 core 142 r2431+42 c69a006 tMod [8-bit@4:2:0 X86_64]
Encoding settings : cabac=1 / ref=9 / deblock=1:-3:-3 / analyse=0x3:0x113 / me=umh / subme=11 / psy=1 / fade_compensate=0.00 / psy_rd=1.00:0.05 / mixed_ref=1 / me_range=32 / chroma_me=1 / trellis=2 / 8x8dct=1 / cqm=0 / deadzone=21,11 / fast_pskip=0 / chroma_qp_offset=-2 / threads=12 / lookahead_threads=2 / sliced_threads=0 / nr=0 / decimate=1 / interlaced=0 / bluray_compat=0 / constrained_intra=0 / fgo=0 / bframes=8 / b_pyramid=2 / b_adapt=2 / b_bias=0 / direct=3 / weightb=1 / open_gop=0 / weightp=2 / keyint=250 / keyint_min=23 / scenecut=40 / intra_refresh=0 / rc_lookahead=40 / rc=crf / mbtree=0 / crf=17.0000 / qcomp=0.60 / qpmin=0:0:0 / qpmax=69:69:69 / qpstep=4 / vbv_maxrate=30000 / vbv_bufsize=30000 / crf_max=0.0 / nal_hrd=none / filler=0 / ip_ratio=1.40 / pb_ratio=1.30 / aq=3:1.00 / aq-sensitivity=10.00 / aq-factor=1.00:1.00:1.00 / aq2=0 / aq3=0
Language : English
Default : Yes
Forced : No
Color range : Limited
Matrix coefficients : BT.709

Audio #1
ID : 2
Format : AC-3
Format/Info : Audio Coding 3
Mode extension : CM (complete main)
Format settings, Endianness : Big
Codec ID : A_AC3
Duration : 1 h 35 min
Bit rate mode : Constant
Bit rate : 384 kb/s
Channel(s) : 2 channels
Channel positions : Front: L R
Sampling rate : 48.0 kHz
Frame rate : 31.250 FPS (1536 spf)
Bit depth : 16 bits
Compression mode : Lossy
Stream size : 263 MiB (9%)
Title : Line
Language : Russian
Default : Yes
Forced : No

Audio #2
ID : 3
Format : AC-3
Format/Info : Audio Coding 3
Mode extension : CM (complete main)
Format settings, Endianness : Big
Codec ID : A_AC3
Duration : 1 h 35 min
Bit rate mode : Constant
Bit rate : 640 kb/s
Channel(s) : 6 channels
Channel positions : Front: L C R, Side: L R, LFE
Sampling rate : 48.0 kHz
Frame rate : 31.250 FPS (1536 spf)
Bit depth : 16 bits
Compression mode : Lossy
Stream size : 439 MiB (15%)
Title : Original
Language : English
Default : No
Forced : No

Text
ID : 4
Format : UTF-8
Codec ID : S_TEXT/UTF8
Codec ID/Info : UTF-8 Plain Text
Duration : 1 h 31 min
Bit rate : 71 b/s
Count of elements : 1524
Stream size : 48.3 KiB (0%)
Title : Full
Language : English
Default : No
Forced : No

Menu
00:00:00.000 : en:1
00:03:42.806 : en:2
00:07:22.108 : en:3
00:11:41.492 : en:4
00:16:04.046 : en:5
00:20:29.978 : en:6
00:25:36.034 : en:7
00:28:45.223 : en:8
00:34:19.974 : en:9
00:37:17.568 : en:10
00:40:45.817 : en:11
00:43:46.831 : en:12
00:48:13.931 : en:13
00:51:28.458 : en:14
00:54:45.696 : en:15
00:59:50.751 : en:16
01:03:44.109 : en:17
01:08:01.324 : en:18
01:11:43.462 : en:19
01:13:46.126 : en:20
01:17:03.406 : en:21
01:20:01.375 : en:22
01:22:32.234 : en:23
01:25:10.642 : en:24


[Для просмотра изображения необходимо включить JavaScript] [Для просмотра изображения необходимо включить JavaScript] [Для просмотра изображения необходимо включить JavaScript] [Для просмотра изображения необходимо включить JavaScript] [Для просмотра изображения необходимо включить JavaScript]
   
Торрент: Зарегистрирован [Декабрь 5, 2016, 9:02 am]
Скачать торрент Магнет ссылка Смотреть онлайн
Скачать торрент
[ Размер 14.89 КБ / Просмотров 5 ]
Статус:
Проверен
---
.torrent скачан: 2504 раз
Приватный: Нет (DHT включён)
Размер: 2.83 ГБ (3 038 402 250)
   
Аватара пользователя
sergey
 
Раздал: 42.79 ТБ
Скачал: 200.15 ГБ
Ратио: 264.896
Сообщения: 5429
Зарегистрирован: Август 6, 2012, 2:11 pm
Откуда: СССР

Флаг страны: СССР

  • Похожие торренты
    Ответы
    Просмотры
    Последнее сообщение

Вернуться в BDRip



Кто сейчас на конференции

Сейчас эту тему просматривают: нет зарегистрированных пользователей и гости: 1

cron
Яндекс.Метрика