Неуловимые. Бангкок (2016) WEB-DLRip-AVC

Фильмы в формате WEBRip/Avi и т.д.

Оценка торрента

5
0
Голосов нет
4
0
Голосов нет
3
0
Голосов нет
2
0
Голосов нет
1
0
Голосов нет
 
Всего голосов : 0

 Статистика раздачи 
Размер: 1.22 ГБ   |  Зарегистрирован: Декабрь 24, 2016, 12:16 pm   |   .torrent скачан: 8740 раз
Сидеров: 282  [ 0 байт/сек ]   Личеров: 63  [ 0 байт/сек ]  

Неуловимые. Бангкок (2016) WEB-DLRip-AVC

Сообщение sergey » Декабрь 24, 2016, 12:16 pm

Информация о фильме
Название: Неуловимые. Бангкок
Год выхода: 2016
Жанр: Триллер, криминал, мелодрама
Режиссер: Артем Аксененко
В ролях: Денис Шведов, Александра Бортич, Иван Шахназаров, Илья Маланин, Анвар Халилулаев

О фильме:
Олигарх, которого ребята наказали за то, что он пытался уйти от ответственности после автокатастрофы, решает им отомстить. Ему нужно не только выбраться из тюрьмы в Бангкоке, но и раздобыть деньги, для того чтобы оплатить свой побег. Так ничего не подозревающие друзья оказываются втянутыми в ограбление Таиландского банка...

[Для просмотра изображения необходимо включить JavaScript]

Страна: Россия
Продолжительность: 01:23:47
Язык: Русский

Файл
Качество: WEB-DLRip (AVC)
Видео: MPEG-4 AVC, 1898 Кбит/с, 1024x426
Аудио: AC3, 2 ch, 192 Кбит/с

General
Unique ID : 194441699302990305709974800801973708265 (0x92481BEECC4322A7A986FC3C0AFCA5E9)
Complete name : D:Neulovimye.Bangkok.2016.WEB-DLRip.AVC.ExKinoRay.mkv
Format : Matroska
Format version : Version 2
File size : 1.22 GiB
Duration : 1 h 23 min
Overall bit rate : 2 083 kb/s
Movie name : Neulovimye Bangkok 2016 from ExKinoRay
Encoded date : UTC 2016-12-24 00:25:13
Writing application : mkvmerge v7.6.0 ('Garden of Dreams') 32bit built on Feb 11 2015 00:18:47
Writing library : libebml v1.3.1 + libmatroska v1.4.2

Video
ID : 1
Format : AVC
Format/Info : Advanced Video Codec
Format profile : High@L4.1
Format settings, CABAC : Yes
Format settings, ReFrames : 12 frames
Codec ID : V_MPEG4/ISO/AVC
Duration : 1 h 23 min
Bit rate : 1 890 kb/s
Width : 1 024 pixels
Height : 426 pixels
Display aspect ratio : 2.40:1
Frame rate mode : Constant
Frame rate : 25.000 FPS
Color space : YUV
Chroma subsampling : 4:2:0
Bit depth : 8 bits
Scan type : Progressive
Bits/(Pixel*Frame) : 0.173
Stream size : 1.08 GiB (89%)
Title : Enigma
Writing library : x264 core 144 r2525 40bb568
Encoding settings : cabac=1 / ref=12 / deblock=1:-3:-3 / analyse=0x3:0x113 / me=umh / subme=10 / psy=1 / psy_rd=1.05:0.10 / mixed_ref=1 / me_range=32 / chroma_me=1 / trellis=2 / 8x8dct=1 / cqm=0 / deadzone=21,11 / fast_pskip=1 / chroma_qp_offset=-3 / threads=12 / lookahead_threads=3 / sliced_threads=0 / nr=0 / decimate=1 / interlaced=0 / bluray_compat=0 / constrained_intra=0 / bframes=12 / b_pyramid=2 / b_adapt=2 / b_bias=0 / direct=3 / weightb=1 / open_gop=0 / weightp=2 / keyint=250 / keyint_min=25 / scenecut=40 / intra_refresh=0 / rc_lookahead=40 / rc=2pass / mbtree=0 / bitrate=1890 / ratetol=1.0 / qcomp=0.60 / qpmin=0 / qpmax=51 / qpstep=4 / cplxblur=20.0 / qblur=0.5 / vbv_maxrate=50000 / vbv_bufsize=62500 / nal_hrd=none / filler=0 / ip_ratio=1.40 / pb_ratio=1.30 / aq=1:1.00
Language : English
Default : Yes
Forced : No
Color range : Limited
Color primaries : BT.709
Transfer characteristics : BT.709
Matrix coefficients : BT.709

Audio
ID : 2
Format : AC-3
Format/Info : Audio Coding 3
Mode extension : CM (complete main)
Format settings, Endianness : Big
Codec ID : A_AC3
Duration : 1 h 23 min
Bit rate mode : Constant
Bit rate : 192 kb/s
Channel(s) : 2 channels
Channel positions : Front: L R
Sampling rate : 48.0 kHz
Frame rate : 31.250 FPS (1536 spf)
Compression mode : Lossy
Stream size : 115 MiB (9%)
Language : Russian
Default : Yes
Forced : Yes



[Для просмотра изображения необходимо включить JavaScript] [Для просмотра изображения необходимо включить JavaScript] [Для просмотра изображения необходимо включить JavaScript] [Для просмотра изображения необходимо включить JavaScript] [Для просмотра изображения необходимо включить JavaScript] [Для просмотра изображения необходимо включить JavaScript]

Без рекламы.
   
Торрент: Зарегистрирован [Декабрь 24, 2016, 12:16 pm]
Видео WEBRip Скачать торрент Магнет ссылка Смотреть онлайн
Скачать торрент
[ Размер 12.95 КБ / Просмотров 16 ]
Статус:
Проверен
---
.torrent скачан: 8740 раз
Приватный: Нет (DHT включён)
Размер: 1.22 ГБ (1 309 215 919)
   
Аватара пользователя
sergey
 
Раздал: 42.81 ТБ
Скачал: 202.96 ГБ
Ратио: 262.002
Сообщения: 5546
Зарегистрирован: Август 6, 2012, 2:11 pm
Откуда: СССР

Флаг страны: СССР

  • Похожие торренты
    Ответы
    Просмотры
    Последнее сообщение

Вернуться в Видео WEBRip



Кто сейчас на конференции

Сейчас эту тему просматривают: нет зарегистрированных пользователей и гости: 1

cron
Яндекс.Метрика