Тролли / Trolls (2016) WEB-DL 720p | iTunes

Мультфильмы

Оценка торрента

5
0
Голосов нет
4
0
Голосов нет
3
0
Голосов нет
2
0
Голосов нет
1
0
Голосов нет
 
Всего голосов : 0

 Статистика раздачи 
Размер: 3.11 ГБ   |  Зарегистрирован: Декабрь 24, 2016, 12:20 pm   |   .torrent скачан: 10881 раз
Сидеров: 1943  [ 0 байт/сек ]   Личеров: 182  [ 0 байт/сек ]  

Тролли / Trolls (2016) WEB-DL 720p | iTunes

Сообщение sergey » Декабрь 24, 2016, 12:20 pm

Информация о фильме
Название: Тролли
Оригинальное название: Trolls
Год выхода: 2016
Жанр: Мультфильм, мюзикл, фэнтези, комедия, приключения, семейный
Режиссер: Майк Митчелл, Уолт Дорн
В ролях: Анна Кендрик, Зои Дешанель, Джастин Тимберлэйк, Кристин Барански, Джеффри Тэмбор, Кристофер Минц-Плассе, Джеймс Корден, Кунал Найяр, Гвен Стефани, Расселл Брэнд

О фильме:
Отправляясь в увлекательное приключение, которое заведет ее далеко от привычного ей мира, Розочка объединяет усилия с самым мрачным троллем на свете по имени Цветан для достижения успеха в своей смелой миссии спасти ее друзей из тисков зловещих бергенов и их лидера, короля Хрящ Старший. Невероятные приключения Розочки проверят ее силу, покажут ее истинную суть и бросят вызов ее способности ударяться в пение в любой момент.
[Для просмотра изображения необходимо включить JavaScript]

Страна: США
Студия: DreamWorks Animation
Продолжительность: 01:32:48
Перевод: Дублированный | iTunes

Файл
Качество: WEB-DL 720p
Видео: MPEG-4 AVC, 1280x542, 4022 Kbit/s, 23.976 fps
Звук:
Аудио #01: 48 kHz, AC3, 5.1, 384 Kbps | Дублированный | iTunes |[Для просмотра изображения необходимо включить JavaScript]
Аудио #02: 48 kHz, AC3, 5.1, 384 kbps | Оригинал |[Для просмотра изображения необходимо включить JavaScript]
Субтитры: Русские (forced,full), английские

General
Unique ID : 187113136469046058558880004135198644764 (0x8CC4ADE36B5FC7D3B78E8858799BDA1C)
Complete name : F:VideoTrolls.2016.WEB-DL.720p.ExKinoRay.mkv
Format : Matroska
Format version : Version 4 / Version 2
File size : 3.11 GiB
Duration : 1 h 32 min
Overall bit rate : 4 790 kb/s
Movie name : Trolls.2016 build by ***селезень***
Encoded date : UTC 2016-12-22 20:32:18
Writing application : mkvmerge v8.3.0 ('Over the Horizon') 64bit
Writing library : libebml v1.3.1 + libmatroska v1.4.2

Video
ID : 1
Format : AVC
Format/Info : Advanced Video Codec
Format profile : Main@L3.1
Format settings, CABAC : No
Format settings, ReFrames : 2 frames
Codec ID : V_MPEG4/ISO/AVC
Duration : 1 h 32 min
Bit rate : 4 022 kb/s
Width : 1 280 pixels
Height : 542 pixels
Display aspect ratio : 2.35:1
Frame rate mode : Constant
Frame rate : 23.976 (23976/1000) FPS
Color space : YUV
Chroma subsampling : 4:2:0
Bit depth : 8 bits
Scan type : Progressive
Bits/(Pixel*Frame) : 0.242
Stream size : 2.61 GiB (84%)
Title : Trolls.2016 build by ***селезень***
Language : English
Default : Yes
Forced : No
Color range : Limited
Color primaries : BT.709
Transfer characteristics : BT.709
Matrix coefficients : BT.709

Audio #1
ID : 2
Format : AC-3
Format/Info : Audio Coding 3
Mode extension : CM (complete main)
Format settings, Endianness : Big
Codec ID : A_AC3
Duration : 1 h 32 min
Bit rate mode : Constant
Bit rate : 384 kb/s
Channel(s) : 6 channels
Channel positions : Front: L C R, Side: L R, LFE
Sampling rate : 48.0 kHz
Frame rate : 31.250 FPS (1536 spf)
Bit depth : 16 bits
Compression mode : Lossy
Stream size : 254 MiB (8%)
Title : Dub [iTunes]
Language : Russian
Default : Yes
Forced : No

Audio #2
ID : 3
Format : AC-3
Format/Info : Audio Coding 3
Mode extension : CM (complete main)
Format settings, Endianness : Big
Codec ID : A_AC3
Duration : 1 h 32 min
Bit rate mode : Constant
Bit rate : 384 kb/s
Channel(s) : 6 channels
Channel positions : Front: L C R, Side: L R, LFE
Sampling rate : 48.0 kHz
Frame rate : 31.250 FPS (1536 spf)
Bit depth : 16 bits
Compression mode : Lossy
Stream size : 254 MiB (8%)
Title : Original
Language : English
Default : No
Forced : No

Text #1
ID : 4
Format : UTF-8
Codec ID : S_TEXT/UTF8
Codec ID/Info : UTF-8 Plain Text
Duration : 1 h 24 min
Bit rate : 0 b/s
Count of elements : 2
Stream size : 65.0 Bytes (0%)
Title : Forced [iTunes]
Language : Russian
Default : Yes
Forced : No

Text #2
ID : 5
Format : UTF-8
Codec ID : S_TEXT/UTF8
Codec ID/Info : UTF-8 Plain Text
Duration : 1 h 31 min
Bit rate : 98 b/s
Count of elements : 1358
Stream size : 66.0 KiB (0%)
Title : Full [iTunes]
Language : Russian
Default : No
Forced : No

Text #3
ID : 6
Format : UTF-8
Codec ID : S_TEXT/UTF8
Codec ID/Info : UTF-8 Plain Text
Duration : 1 h 23 min
Bit rate : 65 b/s
Count of elements : 1380
Stream size : 39.9 KiB (0%)
Title : Full [iTunes]
Language : English
Default : No
Forced : No

Menu
00:00:00.000 : en:1
00:02:19.472 : en:2
00:06:21.922 : en:3
00:10:41.640 : en:4
00:13:25.595 : en:5
00:18:33.361 : en:6
00:22:11.787 : en:7
00:25:40.078 : en:8
00:28:52.728 : en:9
00:32:54.094 : en:10
00:36:32.103 : en:11
00:40:55.783 : en:12
00:44:20.654 : en:13
00:47:26.965 : en:14
00:51:26.079 : en:15
00:55:44.670 : en:16
00:59:57.756 : en:17
01:03:16.079 : en:18
01:05:16.657 : en:19
01:07:55.524 : en:20
01:10:24.256 : en:21
01:13:30.650 : en:22
01:16:20.236 : en:23
01:21:43.726 : en:24


[Для просмотра изображения необходимо включить JavaScript] [Для просмотра изображения необходимо включить JavaScript] [Для просмотра изображения необходимо включить JavaScript] [Для просмотра изображения необходимо включить JavaScript] [Для просмотра изображения необходимо включить JavaScript]
   
Торрент: Зарегистрирован [Декабрь 24, 2016, 12:20 pm]
Мультфильмы Скачать торрент Магнет ссылка Смотреть онлайн
Скачать торрент
[ Размер 16.26 КБ / Просмотров 10 ]
Статус:
Проверен
---
.torrent скачан: 10881 раз
Приватный: Нет (DHT включён)
Размер: 3.11 ГБ (3 334 211 310)
   
Аватара пользователя
sergey
 
Раздал: 42.85 ТБ
Скачал: 204.77 ГБ
Ратио: 260.279
Сообщения: 6051
Зарегистрирован: Август 6, 2012, 2:11 pm
Откуда: СССР

Флаг страны: СССР

  • Похожие торренты
    Ответы
    Просмотры
    Последнее сообщение

Вернуться в Мультфильмы



Кто сейчас на конференции

Сейчас эту тему просматривают: нет зарегистрированных пользователей и гости: 1

cron
Яндекс.Метрика проверить доступность сайта