28 панфиловцев (2016) WEB-DLRip 720p

Фильмы в формате WEBRip/Avi и т.д.

Оценка торрента

5
0
Голосов нет
4
0
Голосов нет
3
0
Голосов нет
2
0
Голосов нет
1
0
Голосов нет
 
Всего голосов : 0

 Статистика раздачи 
Размер: 2.91 ГБ   |  Зарегистрирован: Декабрь 27, 2016, 5:53 pm   |   .torrent скачан: 27831 раз
Сидеров: 9512  [ 0 байт/сек ]   Личеров: 1106  [ 0 байт/сек ]  

28 панфиловцев (2016) WEB-DLRip 720p

Сообщение sergey » Декабрь 27, 2016, 5:53 pm

Страна: Россия
Производство: студия "28 панфиловцев", студия Gaijin Entertainment при участии киностудии "Казахфильм"

Жанр: военный, драма
Год выпуска: 2016
Продолжительность: 02:00:14

Перевод: Не требуется
Cубтитры: нет
Оригинальная аудиодорожка: русский

Режиссер: Ким Дружинин, Андрей Шальопа

В ролях:
Антон Кузнецов, Азиз Бейшеналиев, Дмитрий Сутырин, Андрей Шальопа, Сергей Яценюк, Алексей Лонгин, Алексей Морозов, Сергей Агафонов, Яков Кучеревский, Александр Устюгов, Андрей Некрасов (III), Андрей Бодренков, Олег Фёдоров (III), Марк Овчинников, Павел Гончаров, Антон Падерин, Азамат Нигманов, Аскар Тлеугобилов, Дмитрий Мурашев, Амаду Мамадаков, Михаил Пшенко, Дмитрий Гирев, Виталий Коваленко, Ким Дружинин, Олег Сенченко, Антон Филипенко, Николай Клямчук, Владимир Захаренко, Александр Плаксин, Владислав Погиба, Иван Ефремов (II), Николай Иванов (VII), Дмитрий Цуцкин, Максим Белбородов, Баир Иринчеев, Иван Батарев, Константин Фисенко, Никита Остриков, Алексей Кашников, Кирилл Кузнецов, Александр Кононец, Лидия Милюзина...


Описание:
Осенью 1941-го года немецкие части, стоявшие возле Волоколамска, отделяло от Москвы каких-нибудь два часа по шоссе. Однако, на этом шоссе стояла 316-я стрелковая дивизия под командованием генерал-майора И. В. Панфилова. Этот военачальник обладал настолько высоким авторитетом среди личного состава, что бойцы дивизии сами называли себя панфиловцами. А дивизию — панфиловской.



Источник: WEB-DL 1080p
Качество видео: WEB-DLRip 720p
Формат видео: MKV

Видео: 1280x536 (2.35:1), 25 fps, H264 ~ 3077 kbps avg, 0.187 bit/pixel
Аудио: 48 kHz, Dolby Digital AC3 5.1, 384 kbps

Раздача от: [Для просмотра изображения необходимо включить JavaScript] [Для просмотра изображения необходимо включить JavaScript]
Общее
Полное имя : 28.panfilovcev.2016.WEB-DLRip720p_[New-team]_by_AVP_Studio.mkv
Формат : Matroska
Версия формата : Version 2
Размер файла : 2,91 Гбайт
Продолжительность : 2 ч. 0 м.
Общий поток : 3462 Кбит/сек
Дата кодирования : UTC 2016-12-26 16:39:29
Программа кодирования : mkvmerge v6.1.0 ('Old Devil') built on Mar 4 2013 09:10:42
Библиотека кодирования : libebml v1.3.0 + libmatroska v1.4.0

Видео
Идентификатор : 1
Формат : AVC
Формат/Информация : Advanced Video Codec
Профиль формата : High@L4.1
Параметр CABAC формата : Да
Параметр ReFrames формата : 8 кадров
Идентификатор кодека : V_MPEG4/ISO/AVC
Продолжительность : 2 ч. 0 м.
Битрейт : 3077 Кбит/сек
Ширина : 1280 пикселей
Высота : 536 пикселей
Соотношение сторон : 2,40:1
Режим частоты кадров : Постоянный
Частота кадров : 24,000 кадра/сек
Цветовое пространство : YUV
Субдискретизация насыщенности : 4:2:0
Битовая глубина : 8 бит
Тип развёртки : Прогрессивная
Бит/(Пиксели*Кадры) : 0.187
Размер потока : 2,53 Гбайт (87%)
Библиотека кодирования : x264 core 148 r2597 e86f3a1
Настройки программы : cabac=1 / ref=8 / deblock=1:-3:-3 / analyse=0x3:0x113 / me=umh / subme=10 / psy=1 / psy_rd=1.00:0.00 / mixed_ref=1 / me_range=32 / chroma_me=1 / trellis=2 / 8x8dct=1 / cqm=0 / deadzone=21,11 / fast_pskip=1 / chroma_qp_offset=-2 / threads=6 / lookahead_threads=1 / sliced_threads=0 / nr=0 / decimate=0 / interlaced=0 / bluray_compat=0 / constrained_intra=0 / bframes=8 / b_pyramid=2 / b_adapt=2 / b_bias=0 / direct=3 / weightb=1 / open_gop=0 / weightp=2 / keyint=240 / keyint_min=24 / scenecut=40 / intra_refresh=0 / rc_lookahead=40 / rc=2pass / mbtree=0 / bitrate=3077 / ratetol=1.0 / qcomp=0.60 / qpmin=0 / qpmax=69 / qpstep=4 / cplxblur=20.0 / qblur=0.5 / vbv_maxrate=50000 / vbv_bufsize=50000 / nal_hrd=none / filler=0 / ip_ratio=1.40 / pb_ratio=1.30 / aq=1:0.80
Default : Да
Forced : Нет

Аудио
Идентификатор : 2
Формат : AC-3
Формат/Информация : Audio Coding 3
Расширение режима : CM (complete main)
Параметр Endianness формата : Big
Идентификатор кодека : A_AC3
Продолжительность : 2 ч. 0 м.
Вид битрейта : Постоянный
Битрейт : 384 Кбит/сек
Каналы : 6 каналов
Расположение каналов : Front: L C R, Side: L R, LFE
Частота : 48,0 КГц
Частота кадров : 31,250 кадров/сек (1536 spf)
Битовая глубина : 16 бит
Метод сжатия : С потерями
Размер потока : 330 Мбайт (11%)
Default : Да
Forced : Нет

   
Торрент: Зарегистрирован [Декабрь 27, 2016, 5:53 pm]
Видео WEBRip Скачать торрент Магнет ссылка Смотреть онлайн
Скачать торрент
[ Размер 15.6 КБ / Просмотров 28 ]
Статус:
Проверен
---
.torrent скачан: 27831 раз
Приватный: Нет (DHT включён)
Размер: 2.91 ГБ (3 122 213 417)
   
Аватара пользователя
sergey
 
Раздал: 42.81 ТБ
Скачал: 200.15 ГБ
Ратио: 265.008
Сообщения: 5487
Зарегистрирован: Август 6, 2012, 2:11 pm
Откуда: СССР

Флаг страны: СССР

  • Похожие торренты
    Ответы
    Просмотры
    Последнее сообщение

Вернуться в Видео WEBRip



Кто сейчас на конференции

Сейчас эту тему просматривают: нет зарегистрированных пользователей и гости: 1

cron
Яндекс.Метрика