Оно / It (2017) HDTVRip 720p | L

Фильмы высокого разрешения в формате HDTV

Оценка торрента

5
0
Голосов нет
4
0
Голосов нет
3
0
Голосов нет
2
0
Голосов нет
1
0
Голосов нет
 
Всего голосов : 0

 Статистика раздачи 
Размер: 4.16 ГБ   |  Зарегистрирован: 01 ноя 2017 08:12   |   .torrent скачан: 6 раз
Сидеров: 191  [ 0 байт/сек ]   Личеров: 3  [ 0 байт/сек ]  

Оно / It (2017) HDTVRip 720p | L

Сообщение sergey » 01 ноя 2017 08:12

Информация о фильме
Название: Оно
Оригинальное название: It
Год выхода: 2017
Жанр: ужасы, триллер, драма

Режиссер: Андрес Мускетти

В ролях: Джейден Либерер, Джереми Рэй Тейлор, Софиа Лиллис, Финн Вулфард, Чоузен Джейкобс, Джек Дилан Грейзер, Уайатт Олефф, Джейк Сим

О фильме:
Когда в городке Дерри, штат Мэн, начинают пропадать дети, несколько ребят сталкиваются со своими величайшими страхами и вынуждены помериться силами со злобным клоуном Пеннивайзом, чьи проявления жестокости и список жертв уходят в глубь веков.
[Для просмотра изображения необходимо включить JavaScript]

Страна: США, Канада
Продолжительность: 02:12:18
Перевод: Любительский многоголосый [Студия "Paradox" & Omskbird records]

Файл
Кодек: x.264
Качество: HDTVRip 720p
Видео: AVC, 1280x536 (2.40:1), 30.000 fps, 4 117 Kbps (0.200 bit/pixel)
Звук 1: AC-3, 48.0 KHz, 2 ch, 192 Kbps, CBR | Русский
Звук 2: AC-3, 48.0 KHz, 2 ch, 192 Kbps, CBR | Английский
Субтитры: Корейские (не отключаемые) , английские, немецкие

Сэмпл

Есть звуковая реклама!

Общее
Уникальный идентификатор : 254207290522304632981710162058411851735 (0xBF3E8B150B1569AB806AE841F5CD3FD7)
Полное имя : G:IT.2017.HDTVRip.720p.Rus.Eng.mkv
Формат : Matroska
Версия формата : Version 4 / Version 2
Размер файла : 4,16 Гбайт
Продолжительность : 2 ч. 12 м.
Режим общего битрейта : Переменный
Общий поток : 4504 Кбит/сек
Дата кодирования : UTC 2017-10-31 12:20:42
Программа кодирования : mkvmerge v8.3.0 ('Over the Horizon') 64bit
Библиотека кодирования : libebml v1.3.1 + libmatroska v1.4.2

Видео
Идентификатор : 1
Формат : AVC
Формат/Информация : Advanced Video Codec
Профиль формата : High@L4.1
Параметр CABAC формата : Да
Параметр ReFrames формата : 3 кадра
Идентификатор кодека : V_MPEG4/ISO/AVC
Продолжительность : 2 ч. 12 м.
Вид битрейта : Переменный
Битрейт : 4117 Кбит/сек
Максимальный битрейт : 14,0 Мбит/сек
Ширина : 1280 пикселей
Высота : 536 пикселей
Соотношение сторон : 2,40:1
Режим частоты кадров : Переменный
Частота кадров : 30,000 кадров/сек
Цветовое пространство : YUV
Субдискретизация насыщенности : 4:2:0
Битовая глубина : 8 бит
Тип развёртки : Прогрессивная
Бит/(Пиксели*Кадры) : 0.200
Размер потока : 3,80 Гбайт (91%)
Библиотека кодирования : x264 core 148 r2744 b97ae06
Настройки программы : cabac=1 / ref=4 / deblock=1:-1:-1 / analyse=0x3:0x133 / me=umh / subme=10 / psy=1 / psy_rd=1.00:0.15 / mixed_ref=1 / me_range=24 / chroma_me=1 / trellis=2 / 8x8dct=1 / cqm=0 / deadzone=21,11 / fast_pskip=1 / chroma_qp_offset=-3 / threads=12 / lookahead_threads=1 / sliced_threads=0 / slices=4 / nr=0 / decimate=1 / interlaced=0 / bluray_compat=1 / constrained_intra=0 / bframes=3 / b_pyramid=1 / b_adapt=2 / b_bias=0 / direct=3 / weightb=1 / open_gop=1 / weightp=0 / keyint=29 / keyint_min=1 / scenecut=40 / intra_refresh=0 / rc_lookahead=30 / rc=crf / mbtree=1 / crf=17.5 / qcomp=0.60 / qpmin=10 / qpmax=51 / qpstep=4 / vbv_maxrate=14000 / vbv_bufsize=14000 / crf_max=0.0 / nal_hrd=vbr / filler=0 / ip_ratio=1.40 / aq=1:1.00
Язык : English
Default : Да
Forced : Нет
Цветовой диапазон : Full
Основные цвета : BT.709
Характеристики трансфера : BT.709
Коэффициенты матрицы : BT.709

Аудио #1
Идентификатор : 2
Формат : AC-3
Формат/Информация : Audio Coding 3
Параметр Endianness формата : Big
Идентификатор кодека : A_AC3
Продолжительность : 2 ч. 12 м.
Вид битрейта : Постоянный
Битрейт : 192 Кбит/сек
Каналы : 2 канала
Расположение каналов : Front: L R
Частота : 48,0 КГц
Частота кадров : 31,250 кадров/сек (1536 spf)
Битовая глубина : 16 бит
Метод сжатия : С потерями
Размер потока : 182 Мбайт (4%)
Язык : Russian
Default : Да
Forced : Нет

Аудио #2
Идентификатор : 3
Формат : AC-3
Формат/Информация : Audio Coding 3
Параметр Endianness формата : Big
Идентификатор кодека : A_AC3
Продолжительность : 2 ч. 12 м.
Вид битрейта : Постоянный
Битрейт : 192 Кбит/сек
Каналы : 2 канала
Расположение каналов : Front: L R
Частота : 48,0 КГц
Частота кадров : 31,250 кадров/сек (1536 spf)
Битовая глубина : 16 бит
Метод сжатия : С потерями
Размер потока : 182 Мбайт (4%)
Язык : English
Default : Нет
Forced : Нет

Текст #1
Идентификатор : 4
Формат : ASS
Идентификатор кодека : S_TEXT/ASS
Идентификатор кодека/Информация : Advanced Sub Station Alpha
Продолжительность : 2 ч. 7 м.
Битрейт : 79 бит/сек
ElementCount : 1334
Метод сжатия : Без потерь
Размер потока : 73,9 Кбайт (0%)
Заголовок : BOX
Язык : English
Default : Да
Forced : Нет

Текст #2
Идентификатор : 5
Формат : ASS
Идентификатор кодека : S_TEXT/ASS
Идентификатор кодека/Информация : Advanced Sub Station Alpha
Продолжительность : 2 ч. 7 м.
Битрейт : 79 бит/сек
ElementCount : 1334
Метод сжатия : Без потерь
Размер потока : 73,9 Кбайт (0%)
Заголовок : OUTLINE
Язык : English
Default : Нет
Forced : Нет

Текст #3
Идентификатор : 6
Формат : UTF-8
Идентификатор кодека : S_TEXT/UTF8
Идентификатор кодека/Информация : UTF-8 Plain Text
Продолжительность : 2 ч. 7 м.
Битрейт : 35 бит/сек
ElementCount : 992
Размер потока : 33,2 Кбайт (0%)
Язык : German
Default : Нет
Forced : Нет
   
Торрент: Зарегистрирован [01 ноя 2017 08:12] Видео HDTV Скачать торрент Магнет ссылка Смотреть онлайн
Скачать торрент
[ Размер 11.39 КБ / Просмотров 88 ]
Статус:
Проверен
---
.torrent скачан: 6 раз
Приватный: Нет (DHT включён)
Размер: 4.16 ГБ (4 469 292 604)
   
Аватара пользователя
sergey
 
Раздал: 42.9 ТБ
Скачал: 206.7 ГБ
Ратио: 258.537
Сообщения: 7317
Зарегистрирован: 06 авг 2012 14:11
Откуда: СССР

Флаг страны: СССР

Вернуться в Видео HDTV



Кто сейчас на конференции

Сейчас эту тему просматривают: нет зарегистрированных пользователей и гости: 1

cron cron
Яндекс.Метрика проверить доступность сайта