Секретное досье / The Post (2017) DVDScr | L2

Не вошедшее ни в одну из категорий

Оценка торрента

5
0
Голосов нет
4
0
Голосов нет
3
0
Голосов нет
2
0
Голосов нет
1
0
Голосов нет
 
Всего голосов : 0

 Статистика раздачи 
Размер: 1.39 ГБ   |  Зарегистрирован: 04 фев 2018 07:42   |   .torrent скачан: 1 раз
Сидеров: 26  [ 0 байт/сек ]   Личеров: 0  [ 0 байт/сек ]  

Секретное досье / The Post (2017) DVDScr | L2

Сообщение sergey » 04 фев 2018 07:42

Информация о фильме
Название: Секретное досье
Оригинальное название: The Post

Год выхода: 2017
Жанр: Триллер, драма, биография, история
Режиссер: Стивен Спилберг
В ролях: Мэрил Стрип, Том Хэнкс, Сара Полсон, Боб Оденкёрк, Трэйси Леттс, Брэдли Уитфорд, Брюс Гринвуд, Мэттью Рис, Элисон Бри, Кэрри Кун и другие
О фильме:
История Кэтрин Грэм, первой женщины-издателя газеты «Вашингтон пост», и редактора Бена Брэдли. Они вступают в гонку с «Нью-Йорк таймс» за право пролить свет на государственные тайны, скрывавшиеся более 30 лет. Журналистам придется преодолеть свои разногласия и рискнуть карьерой и свободой, чтобы мир узнал правду.

[Для просмотра изображения необходимо включить JavaScript]

Страна: США, Amblin Entertainment, DreamWorks SKG
Продолжительность: 01:56:26
Перевод: Любительский (двухголосый закадровый) | HiWayGrope

Файл
Кодек: XviD
Качество: DVDScr
Видео: 720x384, 30 fps, ~1499 kbps avg, 0.18 bit/pixe
Звук:
Аудио rus: AC3, 48 kHz, 2 ch, 192 Kbps
Субтитры: отсутствуют

Реклама: присутствует

Семпл

General
Complete name : E:The.Post.2017.DVDScr.HiWayGropeThe.Post.2017.DVDScr.HiWayGrope.avi
Format : AVI
Format/Info : Audio Video Interleave
File size : 1.39 GiB
Duration : 1h 56mn
Overall bit rate : 1 703 Kbps
Writing application : VirtualDubMod 1.5.10.3 (build 2550/release)
Writing library : VirtualDubMod build 2550/release

Video
ID : 0
Format : MPEG-4 Visual
Format profile : Advanced Simple@L5
Format settings, BVOP : 1
Format settings, QPel : No
Format settings, GMC : No warppoints
Format settings, Matrix : Default (MPEG)
Codec ID : XVID
Codec ID/Hint : XviD
Duration : 1h 56mn
Bit rate : 1 500 Kbps
Width : 720 pixels
Height : 384 pixels
Display aspect ratio : 1.85:1
Frame rate : 30.000 fps
Color space : YUV
Chroma subsampling : 4:2:0
Bit depth : 8 bits
Scan type : Progressive
Compression mode : Lossy
Bits/(Pixel*Frame) : 0.181
Stream size : 1.22 GiB (88%)
Writing library : XviD 73

Audio
ID : 1
Format : AC-3
Format/Info : Audio Coding 3
Mode extension : CM (complete main)
Format settings, Endianness : Big
Codec ID : 2000
Duration : 1h 56mn
Bit rate mode : Constant
Bit rate : 192 Kbps
Channel(s) : 2 channels
Channel positions : Front: L R
Sampling rate : 48.0 KHz
Frame rate : 31.250 fps (1536 spf)
Compression mode : Lossy
Stream size : 160 MiB (11%)
Alignment : Split accross interleaves
Interleave, duration : 33 ms (1.00 video frame)
Interleave, preload duration : 500 ms


Релиз от: HiWayGrope
   
Торрент: Зарегистрирован [04 фев 2018 07:42] Остальное Скачать торрент Магнет ссылка
Скачать торрент
[ Размер 14.99 КБ / Просмотров 31 ]
Статус:
Проверен
---
.torrent скачан: 1 раз
Приватный: Нет (DHT включён)
Размер: 1.39 ГБ (1 487 556 608)
   
Аватара пользователя
sergey
 
Раздал: 42.9 ТБ
Скачал: 206.7 ГБ
Ратио: 258.537
Сообщения: 7384
Зарегистрирован: 06 авг 2012 14:11
Откуда: СССР

Флаг страны: СССР

Вернуться в Остальное



Кто сейчас на конференции

Сейчас эту тему просматривают: нет зарегистрированных пользователей и гости: 1

cron
Яндекс.Метрика проверить доступность сайта