Аутсайдер / The Outsider (2018) WEBRip 1080p | L1

Фильмы в формате WEBRip/Avi и т.д.

Оценка торрента

5
0
Голосов нет
4
0
Голосов нет
3
0
Голосов нет
2
0
Голосов нет
1
0
Голосов нет
 
Всего голосов : 0

 Статистика раздачи 
Размер: 2.61 ГБ   |  Зарегистрирован: 13 мар 2018 08:52   |   .torrent скачан: 16060 раз
Сидеров: 6493  [ 0 байт/сек ]   Личеров: 199  [ 0 байт/сек ]  

Аутсайдер / The Outsider (2018) WEBRip 1080p | L1

Сообщение sergey » 13 мар 2018 08:52

Информация о фильме
Название: Аутсайдер
Оригинальное название: The Outsider
Год выхода: 2018
Жанр: Триллер, драма, криминал, детектив
Режиссер: Мартин Зандвлиет
В ролях: Джаред Лето, Таданобу Асано, Киппэй Сина, Рори Кокрейн, Эмиль Хирш, Сиори Куцуна, Юрино, Нозоми де Ланкесэ, Кодзи Като, Сотаро Ясуда

О фильме:
Япония после Второй мировой войны. Американского военнопленного освобождают благодаря помощи сокамерника, принадлежащего к якудза. Став свободным, солдат начинает завоевывать их уважение и возвращает свой долг в опасном криминальном мире.


Страна: США
Студия: Linson Entertainment
Продолжительность: 02:00:58
Перевод: Любительский одноголосый [Хихикающий доктор]

Файл
Кодек: AVC
Качество: WEBRip 1080p
Видео: MPEG-4 AVC, 1920x1080, 2490 Кбит/с, 24.000 кадр/с
Звук: Небольшая звуковая реклама в титрах, начале и конце фильма!
Аудио #1: Русский (ac3, 44100 Hz, stereo, 224 kb/s) Любительский (одноголосый) [Хихикающий доктор]
Аудио #2: Английский ( AC3, 6ch, 384 Кбит/с, 48.0 KHz)
Субтитры: Английские, французские, немецкие, португальские
Источник: The.Outsider.2018.iNTERNAL.1080p.WEB.x264-STRiFE
General
Unique ID : 190108646197122072135694338550293924671 (0x8F0597EBABA24037869F2CF238DD0B3F)
Complete name : The.Outsider.2018.WEBRip.1080p.mkv
Format : Matroska
Format version : Version 4 / Version 2
File size : 2.61 GiB
Duration : 2 h 0 min
Overall bit rate mode : Variable
Overall bit rate : 3 094 kb/s
Encoded date : UTC 2018-03-11 16:31:01
Writing application : mkvmerge v7.1.0 ('Good Love') 64bit built on Jul 27 2014 13:06:55
Writing library : libebml v1.3.0 + libmatroska v1.4.1

Video
ID : 1
Format : AVC
Format/Info : Advanced Video Codec
Format profile : Main@L4
Format settings : CABAC / 3 Ref Frames
Format settings, CABAC : Yes
Format settings, ReFrames : 3 frames
Codec ID : V_MPEG4/ISO/AVC
Duration : 2 h 0 min
Bit rate mode : Variable
Bit rate : 2 490 kb/s
Maximum bit rate : 3 735 kb/s
Width : 1 920 pixels
Height : 1 080 pixels
Display aspect ratio : 16:9
Frame rate mode : Constant
Frame rate : 24.000 FPS
Color space : YUV
Chroma subsampling : 4:2:0
Bit depth : 8 bits
Scan type : Progressive
Bits/(Pixel*Frame) : 0.050
Stream size : 2.10 GiB (80%)
Writing library : x264 core 148
Encoding settings : cabac=1 / ref=3 / deblock=1:0:0 / analyse=0x1:0x111 / me=umh / subme=10 / psy=1 / psy_rd=1.00:0.00 / mixed_ref=1 / me_range=24 / chroma_me=1 / trellis=2 / 8x8dct=0 / cqm=0 / deadzone=21,11 / fast_pskip=1 / chroma_qp_offset=-2 / threads=8 / lookahead_threads=1 / sliced_threads=0 / nr=0 / decimate=1 / interlaced=0 / bluray_compat=0 / stitchable=1 / constrained_intra=0 / bframes=2 / b_pyramid=0 / b_adapt=2 / b_bias=0 / direct=3 / weightb=1 / open_gop=0 / weightp=2 / keyint=48 / keyint_min=25 / scenecut=0 / intra_refresh=0 / rc_lookahead=48 / rc=2pass / mbtree=1 / bitrate=2490 / ratetol=1.0 / qcomp=0.50 / qpmin=6 / qpmax=51 / qpstep=4 / cplxblur=20.0 / qblur=0.5 / vbv_maxrate=3735 / vbv_bufsize=4980 / nal_hrd=vbr / filler=0 / ip_ratio=1.40 / aq=1:1.00
Language : English
Default : Yes
Forced : No

Audio #1
ID : 2
Format : AC-3
Format/Info : Audio Coding 3
Codec ID : A_AC3
Duration : 2 h 0 min
Bit rate mode : Constant
Bit rate : 224 kb/s
Channel(s) : 2 channels
Channel positions : Front: L R
Sampling rate : 44.1 kHz
Frame rate : 28.711 FPS (1536 SPF)
Bit depth : 16 bits
Compression mode : Lossy
Stream size : 194 MiB (7%)
Title : Любительский (одноголосый) Хихикающий доктор
Language : Russian
Service kind : Complete Main
Default : Yes
Forced : No

Audio #2
ID : 3
Format : AC-3
Format/Info : Audio Coding 3
Codec ID : A_AC3
Duration : 2 h 0 min
Bit rate mode : Constant
Bit rate : 384 kb/s
Channel(s) : 6 channels
Channel positions : Front: L C R, Side: L R, LFE
Sampling rate : 48.0 kHz
Frame rate : 31.250 FPS (1536 SPF)
Bit depth : 16 bits
Compression mode : Lossy
Stream size : 332 MiB (12%)
Language : English
Service kind : Complete Main
Default : No
Forced : No

Text #1
ID : 4
Format : UTF-8
Codec ID : S_TEXT/UTF8
Codec ID/Info : UTF-8 Plain Text
Duration : 1 h 50 min
Bit rate : 14 b/s
Count of elements : 460
Stream size : 11.5 KiB (0%)
Title : Forced
Language : English
Default : No
Forced : Yes

Text #2
ID : 5
Format : UTF-8
Codec ID : S_TEXT/UTF8
Codec ID/Info : UTF-8 Plain Text
Duration : 1 h 52 min
Bit rate : 29 b/s
Count of elements : 943
Stream size : 24.4 KiB (0%)
Language : English
Default : No
Forced : No

Text #3
ID : 6
Format : UTF-8
Codec ID : S_TEXT/UTF8
Codec ID/Info : UTF-8 Plain Text
Duration : 1 h 59 min
Bit rate : 23 b/s
Count of elements : 770
Stream size : 20.6 KiB (0%)
Language : German
Default : No
Forced : No

Text #4
ID : 7
Format : UTF-8
Codec ID : S_TEXT/UTF8
Codec ID/Info : UTF-8 Plain Text
Duration : 1 h 59 min
Bit rate : 21 b/s
Count of elements : 777
Stream size : 19.0 KiB (0%)
Language : French
Default : No
Forced : No

Text #5
ID : 8
Format : UTF-8
Codec ID : S_TEXT/UTF8
Codec ID/Info : UTF-8 Plain Text
Duration : 1 h 53 min
Bit rate : 21 b/s
Count of elements : 784
Stream size : 17.8 KiB (0%)
Title : Brazilian
Language : Portuguese
Default : No
Forced : No

   
Торрент: Зарегистрирован [13 мар 2018 08:52] Видео WEBRip Скачать торрент Магнет ссылка Смотреть онлайн
Скачать торрент
[ Размер 13.97 КБ / Просмотров 308 ]
Статус:
Проверен
---
.torrent скачан: 16060 раз
Приватный: Нет (DHT включён)
Размер: 2.61 ГБ (2 806 759 875)
   
Аватара пользователя
sergey
 
Раздал: 42.9 ТБ
Скачал: 206.7 ГБ
Ратио: 258.537
Сообщения: 7246
Зарегистрирован: 06 авг 2012 14:11
Откуда: СССР

Флаг страны: СССР

  • Похожие торренты
    Ответы
    Просмотры
    Последнее сообщение

Вернуться в Видео WEBRip



Кто сейчас на конференции

Сейчас эту тему просматривают: нет зарегистрированных пользователей и гости: 1

cron
Яндекс.Метрика проверить доступность сайта