Спасти Ленинград (2019) WEB-DLRip | iTunes

Фильмы в формате WEBRip/Avi и т.д.

Оценка торрента

5
0
Голосов нет
4
0
Голосов нет
3
0
Голосов нет
2
0
Голосов нет
1
0
Голосов нет
 
Всего голосов : 0

 Статистика раздачи 
Размер: 1.46 ГБ   |  Зарегистрирован: 04 мар 2019 15:04   |   .torrent скачан: 11543 раз
Сидеров: 3448  [ 0 байт/сек ]   Личеров: 136  [ 0 байт/сек ]  

Спасти Ленинград (2019) WEB-DLRip | iTunes

Сообщение sergey » 04 мар 2019 15:04

Информация о фильме
Название: Спасти Ленинград
Год выхода: 2019
Жанр: Драма, военный
Страна: Россия
Перевод: Не требуется
Продолжительность: 01:37:13
Режиссер: Алексей Козлов
В ролях: Мария Мельникова, Андрей Миронов-Удалов, Гела Месхи, Анастасия Мельникова, Валерий Дегтярь, Марина Комарова, Виталий Кищенко, Алексей Шевченков, Борис Щербаков, Инга Оболдина и др.

О фильме: Сентябрь 1941 года. Юные влюбленные Костя и Настя волею обстоятельств оказываются на барже, которая должна вывезти людей из блокадного Ленинграда. Ночью судно попадает в шторм и терпит бедствие, на месте трагедии первыми оказываются вовсе не спасатели, а вражеские самолеты.

[Для просмотра изображения необходимо включить JavaScript]

Файл
Формат: AVI
Качество: WEB-DLRip
Видео: Xvid 73, 720x304, ~1748 kbps, 24,000 fps
Звук: русский, AC3, 5.1 ch, 48 kHz, 384 kbps | iTunes
Субтитры: нет

General
Полное имя : E:TorrentSpastiLeningradWEBDLRip.avi
Формат : AVI
Формат/Информация : Audio Video Interleave
Профиль формата : OpenDML
Размер файла : 1.46 GiB
Продолжительность : 1 h 37 min
Общий поток : 2 144 kb/s
Программа кодирования : XviD4PSP 6.0 / 54.27.101

Video
Идентификатор : 0
Формат : MPEG-4 Visual
Профиль формата : Advanced Simple@L5
Настройки формата : BVOP2 / Custom Matrix
Параметр BVOP формата : 2
Параметр QPel формата : No
Параметр GMC формата : No warppoints
Параметр матрицы формата : Custom
Идентификатор кодека : XVID
Идентификатор кодека/Подсказка : XviD
Продолжительность : 1 h 37 min
Битрейт : 1 748 kb/s
Ширина : 720 pixels
Высота : 304 pixels
Соотношение сторон : 2.35:1
Частота кадров : 24.000 FPS
Цветовое пространство : YUV
Субдискретизация насыщенности : 4:2:0
Битовая глубина : 8 bits
Тип развёртки : Progressive
Метод сжатия : Lossy
Бит/(Пиксели*Кадры) : 0.333
Размер потока : 1.19 GiB (82%)
Библиотека кодирования : XviD 73

Audio
Идентификатор : 1
Формат : AC-3
Формат/Информация : Audio Coding 3
Идентификатор кодека : 2000
Продолжительность : 1 h 37 min
Вид битрейта : Constant
Битрейт : 384 kb/s
Каналы : 6 channels
Расположение каналов : Front: L C R, Side: L R, LFE
Частота : 48.0 kHz
Частота кадров : 31.250 FPS (1536 SPF)
Битовая глубина : 16 bits
Метод сжатия : Lossy
Размер потока : 267 MiB (18%)
Выравнивание : Aligned on interleaves
Продолжительность промежутка : 32 ms (0.77 video frame)

   
Торрент: Зарегистрирован [04 мар 2019 15:04] Видео WEBRip Скачать торрент Магнет ссылка Смотреть онлайн
Скачать торрент
[ Размер 15.53 КБ / Просмотров 9 ]
Статус:
Проверен
---
.torrent скачан: 11543 раз
Приватный: Нет (DHT включён)
Размер: 1.46 ГБ (1 562 915 630)
   
Аватара пользователя
sergey
 
Раздал: 42.9 ТБ
Скачал: 206.7 ГБ
Ратио: 258.537
Сообщения: 7552
Зарегистрирован: 06 авг 2012 14:11
Откуда: СССР

Флаг страны: СССР

  • Похожие торренты
    Ответы
    Просмотры
    Последнее сообщение

Вернуться в Видео WEBRip



Кто сейчас на конференции

Сейчас эту тему просматривают: нет зарегистрированных пользователей и гости: 1

cron
Яндекс.Метрика проверить доступность сайта