Rammstein - Videos 1995-2012 (2012) DVDRip

Видеоклипы
 Статистика раздачи 
Размер: 1.46 ГБ   |  Зарегистрирован: Январь 31, 2013, 9:22 am   |   .torrent скачан: 145 раз
Сидеров: 37  [ 0 байт/сек ]   Личеров: 2  [ 0 байт/сек ]  

Rammstein - Videos 1995-2012 (2012) DVDRip

Сообщение sergey » Январь 31, 2013, 9:22 am

Название: Videos 1995-2012
Исполнитель: Rammstein
Год: 2012
Жанр: Neue Deutsche Harte, Industrial Metal
Страна: Германия
Продолжительность: 01:46:52
Кодек: DivX
Качество: DVDRip
Формат: AVI
Видео: 1564 Кбит/сек, 720х408 (16:9), 25,000 кадров/сек, 0.213 bits/pixel
Aудио: AC3, 384 Кбит/сек, 2 канала, 48,0 КГц



01. Du riechst so gut (4:03)
02. Seemann (4:21)
03. Rammstein (4:30)
04. Engel (4:26)
05. Du hast (3:55)
06. Du riechst so gut '98 (4:26)
07. Stripped (3:54)
08. Sonne (4:12)
09. Links 2 3 4 (3:36)
10. Ich will (4:05)
11. Mutter (3:47)
12. Feuer frei! (3:10)
13. Mein Teil (4:31)
14. Amerika (4:18)
15. Ohne dich (5:40)
16. Keine Lust (5:59)
17. Benzin (3:32)
18. Rosenrot (3:59)
19. Mann gegen Mann (3:51)
20. Pussy (4:01)
21. Ich tu dir weh (3:57)
22. Haifisch (4:31)
23. Mein Land (4:27)
24. Mein Herz brennt - Piano Version (4:38)
25. Mein Herz brennt (5:03)

Формат : AVI
Формат/Информация : Audio Video Interleave
Размер файла : 1,46 Гбайт
Продолжительность : 1 ч. 46 м.
Общий поток : 1958 Кбит/сек
Программа кодирования : VirtualDubMod 1.5.10.3 | www.virtualdub-fr.org || (build 2550/release)
Библиотека кодирования : VirtualDubMod build 2550/release
Видео
Идентификатор : 0
Формат : MPEG-4 Visual
Профиль формата : Advanced Simple@L5
Параметр BVOP формата : 2
Параметр QPel формата : Нет
Параметр GMC формата : Без точки перехода
Параметр матрицы формата : Default (MPEG)
Идентификатор кодека : DX50
Идентификатор кодека/Подсказка : DivX 5
Продолжительность : 1 ч. 46 м.
Битрейт : 1564 Кбит/сек
Ширина : 720 пикселей
Высота : 408 пикселей
Соотношение сторон : 16:9
Частота кадров : 25,000 кадров/сек
Цветовое пространство : YUV
Субдискретизация насыщенности : 4:2:0
Битовая глубина : 8 бит
Тип развёртки : Прогрессивная
Метод сжатия : С потерями
Бит/(Пиксели*Кадры) : 0.213
Размер потока : 1,17 Гбайт (80%)
Библиотека кодирования : XviD 1.2.1 (UTC 2008-12-04)
Аудио
Идентификатор : 1
Формат : AC-3
Формат/Информация : Audio Coding 3
Расширение режима : CM (complete main)
Идентификатор кодека : 2000
Продолжительность : 1 ч. 46 м.
Вид битрейта : Постоянный
Битрейт : 384 Кбит/сек
Каналы : 2 канала
Расположение каналов : Front: L R
Частота : 48,0 КГц
Битовая глубина : 16 бит
Метод сжатия : С потерями
Размер потока : 293 Мбайт (20%)
Выравнивание : Разделение по промежуткам
Продолжительность промежутка : 40 мс. (1,00 видеокадр)
Время предзагрузки промежутка : 500 мс.

Дополнительная информация: "Rammstein Videos 1995-2012" - диск группы Rammstein, релиз которого состоялся 14 декабря 2012 года. В данный сборник вошли все клипы группы, а также 2 неизданных ранее видео на песню «Mein Herz Brennt».
   
Торрент: Зарегистрирован [Январь 31, 2013, 9:22 am]
Клипы Скачать торрент Магнет ссылка Смотреть онлайн
Скачать торрент
[ Размер 29.83 КБ / Просмотров 84 ]
Статус:
---
---
.torrent скачан: 145 раз
Приватный: Нет (DHT включён)
Размер: 1.46 ГБ (1 569 206 272)
   
Аватара пользователя
sergey
 
Раздал: 42.54 ТБ
Скачал: 198.69 ГБ
Ратио: 265.234
Сообщения: 5350
Зарегистрирован: Август 6, 2012, 2:11 pm
Откуда: СССР

Флаг страны: СССР

Вернуться в Клипы



Кто сейчас на конференции

Сейчас эту тему просматривают: нет зарегистрированных пользователей и гости: 1

Ресурс не содержит никакой другой информации, кроме описаний отдельных файлов или их групп, имеющихся у некоторых пользователей данного ресурса. Подтверждением наличия данных файлов у пользователя может иногда являться специальный набор значений, представляющих собой результаты применения односторонних хеш-функций к этим файлам или их группам. Данные наборы значений объединяются пользователями в единое целое и могут быть выложены ими вместе с описаниями имеющихся у них файлов. Администрация данного ресурса не имеет физической возможности убедиться, что описания файлов, выложенные нашими пользователями, равно как и созданные ими наборы хешей от файлов, соответствуют реальным файлам имеющимся у пользователей, а не созданы каким-либо иным способом.
cron
Яндекс.Метрика