Андрей Сапунов (гр.Воскресение) - Старый звонарь (2004) FLAC

Музыка всех стилей и направлений, аудиокниги
 Статистика раздачи 
Размер: 246.72 МБ   |  Зарегистрирован: Февраль 20, 2013, 3:20 pm   |   .torrent скачан: 4 раз
Сидеров: 10  [ 0 байт/сек ]   Личеров: 1  [ 0 байт/сек ]  

Андрей Сапунов (гр.Воскресение) - Старый звонарь (2004) FLAC

Сообщение sergey » Февраль 20, 2013, 3:20 pm

Название: Старый звонарь
Исполнитель: Андрей Сапунов (гр.Воскресение)
Год: 2004
Жанр: Rock
Страна: Россия

Продолжительность: 37мин 43 сек
Формат/Кодек: FLAC
Битрейт аудио: lossless( image+.cue +лог EAC)
1. Я Знаю (4:56)
2. Началось (4:07)
3. Про Бег (3:36)
4. Ветер (дыхание доброго неба) (3:45)
5. Листопад (3:41)
6. Не торопясь (4:31)
7. Говори (4:16)
8. Чёлочки-косички (3:41)
9. Звон (5:11)


Дополнительная информация: Состав:
А. Сапунов - вокал, гитара, бас-гитара;
А. Миансаров - клавишные;
М. Шевяков - ударные;

При участии Преснякова (ст.) - саксофон
Exact Audio Copy V0.99 prebeta 4 from 23. January 2008

Отчёт EAC об извлечении, выполненном 15. февраля 2009, 20:15

Андрей Сапунов / Старый звонарь

Дисковод: PIONEER DVD-RW DVR-110D Adapter: 0 ID: 0

Режим чтения : Достоверность
Использование точного потока : Да
Отключение кэша аудио : Да
Использование указателей C2 : Нет

Коррекция смещения при чтении : 48
Способность читать области Lead-in и Lead-out : Нет
Заполнение пропущенных сэмплов тишиной : Да
Удаление блоков с тишиной в начале и конце : Нет
При вычислениях CRC использовались нулевые сэмплы : Да
Интерфейс : Встроенный Win32-интерфейс для Win NT/2000

Выходной формат : Пользовательский кодировщик
Выбранный битрейт : 768 kBit/s
Качество : Высокий
Добавление ID3-тэга : Нет
Утилита сжатия : C:Program FilesExact Audio CopyFLACFLAC.EXE
Дополнительные параметры : -6 -V -T "ARTIST=%a" -T "TITLE=%t" -T "ALBUM=%g" -T "DATE=%y" -T "TRACKNUMBER=%n" -T "GENRE=%m" -T "COMMENT=%e" %s -o %d

TOC извлечённого CD

Трек | Старт | Длительность | Начальный сектор | Конечный сектор
---------------------------------------------------------------------
1 | 0:00.00 | 4:56.25 | 0 | 22224
2 | 4:56.25 | 4:07.71 | 22225 | 40820
3 | 9:04.21 | 3:36.27 | 40821 | 57047
4 | 12:40.48 | 3:44.73 | 57048 | 73920
5 | 16:25.46 | 3:41.66 | 73921 | 90561
6 | 20:07.37 | 4:31.40 | 90562 | 110926
7 | 24:39.02 | 4:16.66 | 110927 | 130192
8 | 28:55.68 | 3:41.64 | 130193 | 146831
9 | 32:37.57 | 5:11.46 | 146832 | 170202

Характеристики диапазона извлечения и сообщения об ошибках

Выбранный диапазон

Имя файла C:EACАндрей Сапунов - Старый звонарь.wav

Пиковый уровень 96.6 %
Качество диапазона 100.0 %
CRC копии A7DFF84F
Копирование... OK

Ошибок не произошло

AccurateRip: сводка

Трек 1 нет в базе данных
Трек 2 нет в базе данных
Трек 3 нет в базе данных
Трек 4 нет в базе данных
Трек 5 нет в базе данных
Трек 6 нет в базе данных
Трек 7 нет в базе данных
Трек 8 нет в базе данных
Трек 9 нет в базе данных

Ни одного трека нет в базе AccurateRip
   
Торрент: Зарегистрирован [Февраль 20, 2013, 3:20 pm]
Аудио Скачать торрент Магнет ссылка
Скачать торрент
[ Размер 19.93 КБ / Просмотров 19 ]
Статус:
---
---
.torrent скачан: 4 раз
Приватный: Нет (DHT включён)
Размер: 246.72 МБ (258 709 086)
   
Аватара пользователя
sergey
 
Раздал: 42.54 ТБ
Скачал: 198.69 ГБ
Ратио: 265.234
Сообщения: 5348
Зарегистрирован: Август 6, 2012, 2:11 pm
Откуда: СССР

Флаг страны: СССР

  • Похожие торренты
    Ответы
    Просмотры
    Последнее сообщение

Вернуться в Аудио



Кто сейчас на конференции

Сейчас эту тему просматривают: нет зарегистрированных пользователей и гости: 1

Ресурс не содержит никакой другой информации, кроме описаний отдельных файлов или их групп, имеющихся у некоторых пользователей данного ресурса. Подтверждением наличия данных файлов у пользователя может иногда являться специальный набор значений, представляющих собой результаты применения односторонних хеш-функций к этим файлам или их группам. Данные наборы значений объединяются пользователями в единое целое и могут быть выложены ими вместе с описаниями имеющихся у них файлов. Администрация данного ресурса не имеет физической возможности убедиться, что описания файлов, выложенные нашими пользователями, равно как и созданные ими наборы хешей от файлов, соответствуют реальным файлам имеющимся у пользователей, а не созданы каким-либо иным способом.
cron
Яндекс.Метрика