Однажды в Ростове [01-24 из 24] (2012) DVDRip от New-Team | лицензия

Отечественные и зарубежные сериалы

Оценка торрента

5
0
Голосов нет
4
0
Голосов нет
3
0
Голосов нет
2
0
Голосов нет
1
0
Голосов нет
 
Всего голосов : 0

 Статистика раздачи 
Размер: 16.58 ГБ   |  Зарегистрирован: Апрель 7, 2015, 7:17 pm   |   .torrent скачан: 5046 раз
Сидеров: 1087  [ 0 байт/сек ]   Личеров: 1135  [ 0 байт/сек ]  

Однажды в Ростове [01-24 из 24] (2012) DVDRip от New-Team | лицензия

Сообщение sergey » Март 15, 2013, 7:09 am

Страна: Россия
Год выпуска: 2012
Жанр: драма, криминал
Продолжительность: 24 серии ~ 44 минуты

Субтитры: нет
Оригинальная аудиодорожка: русский

В ролях: Владимир Вдовиченков, Сергей Жигунов, Алёна Бабенко, Виктор Раков, Юрий Беляев, Кирилл Плетнёв, Константин Лавроненко, Андрей Ильин, Екатерина Климова, Богдан Ступка...

Режиссеры: Константин Худяков

Описание: СССР, 2 июня 1962 года. В центре повествования история жизни и преступной деятельности шайки бандитов, известных как "фантомасы" Толстопятовы, которые в эти неспокойные времена нагоняли страх на всех жителей города. Кроме этого сериал повествует о событиях, связанных с расстрелом голодного бунта, произошедшего в Новочеркасске, и о событиях, последовавших за ним и оказавших влияние на всю страну. Один из главных героев сериала - талантливый художник, гениальный конструктор Вячеслав Толстопятов (Владимир Вдовиченков). После того, как он волею судьбы оказывается невольным свидетелем расстрела мирной демонстрации в Новочеркасске, он пересматривает свои убеждения и становится бандитом.
После снижения заработной платы и повышения цен жители Новочеркасска вышли на мирную демонстрацию. Но страсти быстро накалились и привели к трагедии - расстрелу митингующих рабочих, несмотря на протесты генерала Шапошникова (Юрий Беляев). Властям удается замять трагедию, у свидетелей берут подписку о неразглашении, а все несогласные получают тюремные сроки. На митинге присутствовал и Вячеслав Толстопятов. Увиденное перевернуло его представление о жизни... Вместе со своим старшим братом, киномехаником Владимиром (Виктор Раков), его женой Тамарой (Алена Бабенко) и другом Александром (Михаил Евланов) он организует банду. Они грабят государственные сберкассы, скрывая свои лица под чулками. За необычный вид бандиты получают в народе прозвище - "Фантомасы". По следу шайки идут капитан уголовного розыска Павел Карпухин (Кирилл Плетнев) и офицер КГБ Сергей Колесников (Сергей Жигунов). Дело "Фантомасов" берут на контроль на самом верху. Когда в дело примешивается политика, в столкновение органов госбезопасности и группировки оказываются втянуты врачи, профессора, уголовники, диссиденты.
Несколько лет, с 1968 по 1973, банда Толстопятовых держала в страхе Ростов. Успех им обеспечивал талант Вячеслава, который не только продумывал каждую операцию до мелочей, но даже создал гибрид пистолета и пулемета для своих напарников.
Бандитов долго не могут поймать, они всегда опережают милиционеров, лучше оснащены технически и не привлекают внимания, т.к. почти не тратят свою добычу.

Качество: DVDRip (4 x DVD9 R5)
Формат: AVI

Видео: 720x400 (16:9), 25.000 fps, XViD ~ 2000 kbps avg, 0.278 bit/pixel
Аудио: 48 kHz, АС3 2 ch, 192 kbps, русский

Общее
Полное имя : Odnajdy.v.Rostove.2012.O.DVDRip_[New-Team]_by_avproh1.avi
Формат : AVI
Формат/Информация : Audio Video Interleave
Размер файла : 704 Мбайт
Продолжительность : 44 м.
Общий поток : 2201 Кбит/сек
Программа кодирования : VirtualDubMod 1.5.10.3 | http://www.virtualdub-fr.org || (build 2550/release)
Библиотека кодирования : VirtualDubMod build 2550/release

Видео
Идентификатор : 0
Формат : MPEG-4 Visual
Профиль формата : Advanced Simple@L5
Параметр BVOP формата : 1
Параметр QPel формата : Нет
Параметр GMC формата : Без точки перехода
Параметр матрицы формата : Выборочная
Идентификатор кодека : XVID
Идентификатор кодека/Подсказка : XviD
Продолжительность : 44 м.
Битрейт : 2000 Кбит/сек
Ширина : 720 пикселей
Высота : 400 пикселей
Соотношение сторон : 16:9
Частота кадров : 25,000 кадров/сек
Цветовое пространство : YUV
Субдискретизация насыщенности : 4:2:0
Битовая глубина : 8 бит
Тип развёртки : Прогрессивная
Метод сжатия : С потерями
Бит/(Пиксели*Кадры) : 0.278
Размер потока : 639 Мбайт (91%)
Библиотека кодирования : XviD 73

Аудио
Идентификатор : 1
Формат : AC-3
Формат/Информация : Audio Coding 3
Расширение режима : CM (complete main)
Параметр Endianness формата : Big
Идентификатор кодека : 2000
Продолжительность : 44 м.
Вид битрейта : Постоянный
Битрейт : 192 Кбит/сек
Каналы : 2 канала
Расположение каналов : Front: L R
Частота : 48,0 КГц
Битовая глубина : 16 бит
Метод сжатия : С потерями
Размер потока : 61,4 Мбайт (9%)
Выравнивание : Разделение по промежуткам
Продолжительность промежутка : 40 мс. (1,00 видеокадр)
Время предзагрузки промежутка : 500 мс.






   
Торрент: Зарегистрирован [Апрель 7, 2015, 7:17 pm]
Сериалы Скачать торрент Магнет ссылка Смотреть онлайн
Скачать торрент
[ Размер 43.19 КБ / Просмотров 0 ]
Статус:
Проверен
---
.torrent скачан: 5046 раз
Приватный: Нет (DHT включён)
Размер: 16.58 ГБ (17 798 225 920)
   
Аватара пользователя
sergey
 
Раздал: 42.54 ТБ
Скачал: 198.69 ГБ
Ратио: 265.234
Сообщения: 5348
Зарегистрирован: Август 6, 2012, 2:11 pm
Откуда: СССР

Флаг страны: СССР

Вернуться в Сериалы



Кто сейчас на конференции

Сейчас эту тему просматривают: нет зарегистрированных пользователей и гости: 1

Ресурс не содержит никакой другой информации, кроме описаний отдельных файлов или их групп, имеющихся у некоторых пользователей данного ресурса. Подтверждением наличия данных файлов у пользователя может иногда являться специальный набор значений, представляющих собой результаты применения односторонних хеш-функций к этим файлам или их группам. Данные наборы значений объединяются пользователями в единое целое и могут быть выложены ими вместе с описаниями имеющихся у них файлов. Администрация данного ресурса не имеет физической возможности убедиться, что описания файлов, выложенные нашими пользователями, равно как и созданные ими наборы хешей от файлов, соответствуют реальным файлам имеющимся у пользователей, а не созданы каким-либо иным способом.
cron
Яндекс.Метрика