Спартак: Месть / Spartacus: Vengeance [S02] (2012) BDRip | LostFilm | Extended Version

Отечественные и зарубежные сериалы
 Статистика раздачи 
Размер: 10.82 ГБ   |  Зарегистрирован: Апрель 20, 2013, 5:44 pm   |   .torrent скачан: 12 раз
Сидеров: 8  [ 0 байт/сек ]   Личеров: 1  [ 0 байт/сек ]  

Спартак: Месть / Spartacus: Vengeance [S02] (2012) BDRip | LostFilm | Extended Version

Сообщение Denny » Апрель 20, 2013, 5:44 pm

Спартак: Месть, Сезон 2 / Spartacus: Vengeance, Season Two
«Some legends are written in blood.»

Год выхода: 2012
Страна: США
Жанр: боевик, драма, приключения, биография, история
Продолжительность: ~00:57:00 x10
Перевод: Профессиональный (многоголосый закадровый) (Студия "Кравец")
Субтитры: русские (на расширенные места), русские (by Kain_Rasiel на 1-6 серии), русские (notabenoid на 7-10 серии), английские (отдельно)
Оригинальная аудиодорожка: английская
Режиссёр: Майкл Херст / Michael Hurst, Джесси Уарн / Jesse Warn, Рик Джейкобсон / Rick Jacobson

В ролях: Лиам МакИнтайр (Spartacus), Ману Беннетт [(Crixus), Питер Менса (Doctore), Ник Тарабэй (Ashur), Вива Бьянка (Ilithyia), Катрина Ло (Mira), Крэйг Паркер (Glaber), Лесли-Энн Брандт (Naevia), Люси Лоулесс(Lucretia)

О фильме: Вслед за кровавым побегом из дома Батиата, восстание гладиаторов начинает вселять страх в сердце Римской республики. Гай Клавдий Глабр и его римские войска направляются в Капую разбить, с каждым днём растущую группу освобожденных рабов, под предводительством лучшего римского гладиатора Спартака. Спартаку выпадает шанс отомстить человеку обрекшего его на рабство, а его жену на смерть. Вы увидите невероятную историю мести Спартака, всю кровь пролившуюся на римские земли во время восстания, самый страстный секс, подлость, предательства, героизм...

Качество видео: BDRip [BDRemux 1080p]
Формат: AVI
Видео: XviD, 704x400 (16:9), 23.976 fps, ~1750 kbps
Аудио №1: Русский: AC3, 48 kHz, 3/2 (L,C,R,l,r) + LFE ch, 16 bit, 448 kbps
Аудио №2: Английский: AC3, 48 kHz, 3/2 (L,C,R,l,r) + LFE ch, 16 bit, 448 kbps

02x01: Fugitivus / Беглый
02x02: A Place in this World / Место в этом мире
02x03: The Greater Good / Высшее благо
02x04: Empty Hands / Пустые руки
02x05: Libertus / Вольный
02x06: Chosen Path / Избранный путь
02x07: Sacramentum / Клятва
02x08: Balance / Чаши весов
02x09: Monsters / Чудовища
[*]02x10: Wrath of the Gods / Гнев богов
General
Complete name : Spartacus.Vengeance.S02.2012.BDRip.LostFilmSpartacus.Vengeance.S02E01.BDRip.XviD.AC3.LostFilm.avi
Format : AVI
Format/Info : Audio Video Interleave
File size : 1.07 GiB
Duration : 57mn 34s
Overall bit rate : 2 671 Kbps
Writing application : VirtualDubMod 1.5.10.3 | http://www.virtualdub-fr.org || (build 2550/release)
Writing library : VirtualDubMod build 2550/release

Video
ID : 0
Format : MPEG-4 Visual
Format profile : Advanced Simple@L5
Format settings, BVOP : 1
Format settings, QPel : No
Format settings, GMC : No warppoints
Format settings, Matrix : Custom
Codec ID : XVID
Codec ID/Hint : XviD
Duration : 57mn 34s
Bit rate : 1 761 Kbps
Width : 704 pixels
Height : 400 pixels
Display aspect ratio : 16:9
Frame rate : 23.976 fps
Color space : YUV
Chroma subsampling : 4:2:0
Bit depth : 8 bits
Scan type : Progressive
Compression mode : Lossy
Bits/(Pixel*Frame) : 0.261
Stream size : 725 MiB (66%)
Writing library : XviD 65

Audio #1
ID : 1
Format : AC-3
Format/Info : Audio Coding 3
Mode extension : CM (complete main)
Codec ID : 2000
Duration : 57mn 34s
Bit rate mode : Constant
Bit rate : 448 Kbps
Channel(s) : 6 channels
Channel positions : Front: L C R, Side: L R, LFE
Sampling rate : 48.0 KHz
Bit depth : 16 bits
Compression mode : Lossy
Stream size : 184 MiB (17%)
Alignment : Split accross interleaves
Interleave, duration : 42 ms (1.00 video frame)
Interleave, preload duration : 500 ms

Audio #2
ID : 2
Format : AC-3
Format/Info : Audio Coding 3
Mode extension : CM (complete main)
Codec ID : 2000
Duration : 57mn 34s
Bit rate mode : Constant
Bit rate : 448 Kbps
Channel(s) : 6 channels
Channel positions : Front: L C R, Side: L R, LFE
Sampling rate : 48.0 KHz
Bit depth : 16 bits
Compression mode : Lossy
Stream size : 184 MiB (17%)
Alignment : Split accross interleaves
Interleave, duration : 42 ms (1.00 video frame)
Interleave, preload duration : 500 ms




   
Торрент: Зарегистрирован [Апрель 20, 2013, 5:44 pm]
Сериалы Скачать торрент Магнет ссылка Смотреть онлайн
Скачать торрент
[ Размер 31.28 КБ / Просмотров 64 ]
Статус:
---
---
.torrent скачан: 12 раз
Приватный: Нет (DHT включён)
Размер: 10.82 ГБ (11 614 243 201)
   
Аватара пользователя
Denny
 
Раздал: 7.49 ТБ
Скачал: 807.97 ГБ
Ратио: 1007.499
Сообщения: 1934
Зарегистрирован: Ноябрь 19, 2012, 10:49 pm
Откуда: Россия

Флаг страны: Russia

Вернуться в Сериалы



Кто сейчас на конференции

Сейчас эту тему просматривают: нет зарегистрированных пользователей и гости: 1

Ресурс не содержит никакой другой информации, кроме описаний отдельных файлов или их групп, имеющихся у некоторых пользователей данного ресурса. Подтверждением наличия данных файлов у пользователя может иногда являться специальный набор значений, представляющих собой результаты применения односторонних хеш-функций к этим файлам или их группам. Данные наборы значений объединяются пользователями в единое целое и могут быть выложены ими вместе с описаниями имеющихся у них файлов. Администрация данного ресурса не имеет физической возможности убедиться, что описания файлов, выложенные нашими пользователями, равно как и созданные ими наборы хешей от файлов, соответствуют реальным файлам имеющимся у пользователей, а не созданы каким-либо иным способом.
cron
Яндекс.Метрика