Iron Maiden - En Vivo! (2012) BDRip

Видеоклипы
 Статистика раздачи 
Размер: 2.19 ГБ   |  Зарегистрирован: Апрель 28, 2013, 11:41 am   |   .torrent скачан: 6 раз
Сидеров: 9  [ 0 байт/сек ]   Личеров: 0  [ 0 байт/сек ]  

Iron Maiden - En Vivo! (2012) BDRip

Сообщение Denny » Апрель 28, 2013, 11:41 am

 Iron Maiden: En Vivo! (2012) BDRip

Информация о фильме:
Оригинальное название: Iron Maiden: En Vivo!
Год выхода: 2012
Жанр: Музыка
Режиссёр: Энди Мэтьюз / Andy Matthews
В ролях: Брюс Дикинсон /Bruce Dickinson/, Яник Герс /Janick Gers/, Стив Харрис /Steve Harris/, Iron Maiden /Iron Maiden/, Нико МакБрэйн /Nicko McBrain/, Адриан Смит /Adrian Smith/, Дэйв Мюррэй /Dave Murray/

Сюжет:
«En Vivo!» — что в переводе с испанского означает «Живьём!» — был записан 10 апреля прошлого года в ходе мирового турне в поддержку 15 лонгплея группы. Масштабное зрелище разворачивалось на забитом неистовыми южноамериканскими фэнами стадионе Estadio Nacional, что в Сантьяго.
Басист и основатель Стив Харрис по поводу пополнения концертного каталога Мэйден: «Для меня крайне важно было то, что получилось запечатлеть в Южной Америке, так как реакция поклонников в той части света всегда ошеломляла нас, и я хотел отразить это в процессе съёмок. После длительных дискуссий мы остановили свой выбор на шоу в Сантьяго, осознав, что перфоманс на Estadio Nacional стал лучшим во всём туре, а играть на этой престижной площадке для нас особое событие. По причинами известным нашим почитателям, понадобилось много времени, прежде чем отыграть своё первое шоу в Чили. И однажды, когда оно наконец-таки состоялось, отдача была настолько феноменальной, что нам пришлось возвращаться сюда снова, и снова. И каждый наш приезд лучше предыдущего!
Концерт не обошёлся без нового гигантского Эдди. Его появление не планировалось до европейских выступлений, но мы во время ухитрились переправить его через океан с помощью специального огромного контейнера — прямиком к заключительной части южно-американского турне. Здорово, что нам удалось увековечить его для ДВД, так как это того стоит!»
Шоу было снято в цифровом формате на 22 HD камеры и октокамеру (летающая камера, снимавшая зрителей с воздуха). Звук записан как в стерео, так и формате 5.1, и смикширован давним продюсером коллектива Кевином Ширли про прозвищу «Caveman». Всё это помогло передать неповторимую атмосферу сего захватывающего действа. Обширное использование разделённых экранов позволит поклонникам более детально рассмотреть участников коллектива. Сет-лист же плавно переходит от композиций с последнего «железнодевского» опуса к всенародно любимой классике из обширного и разнообразного каталога группы.

Страна: Великобритания
Продолжительность: 1:55:59
Перевод: Не требуется
Субтитры: Отсутствуют

Информация о файле:
Качество: BDRip
Файл: AVI
Кодек: XviD, build 65 codec
Видео: 704 x 400, 16:9; 23.976 fps; ~ 2238 kbps; 0.331 bit/pixel
Аудио: 48 kHz, AC3 Dolby Digital, 3/2 (L,C,R,l,r) + LFE ch, ~448.00 kbps avg
Размер: 2237 Mb  (1/2 DVD)

General
Complete name                            : Iron.Maiden.En.Vivo.2012.ENG.BDRip.XviD.AC3.-HQ-ViDEO.avi
Format                                   : AVI
Format/Info                              : Audio Video Interleave
Format profile                           : OpenDML
File size                                : 2.19 GiB
Duration                                 : 1h 55mn
Overall bit rate                         : 2 697 Kbps
Movie name                               : Iron Maiden: En Vivo!
Director                                 : Overlord
Writing application                      : VirtualDubMod 1.5.10.2 (build 2540/release)
Original source form/Name                : Music Video
Copyright                                : HQ-ViDEO.ORG
Comment                                  : 25.04.2013

Video
ID                                       : 0
Format                                   : MPEG-4 Visual
Format profile                           : Advanced Simple@L5
Format settings, BVOP                    : 2
Format settings, QPel                    : No
Format settings, GMC                     : No warppoints
Format settings, Matrix                  : Custom
Codec ID                                 : XVID
Codec ID/Hint                            : XviD
Duration                                 : 1h 55mn
Bit rate                                 : 2 238 Kbps
Width                                    : 704 pixels
Height                                   : 400 pixels
Display aspect ratio                     : 16:9
Frame rate                               : 23.976 fps
Color space                              : YUV
Chroma subsampling                       : 4:2:0
Bit depth                                : 8 bits
Scan type                                : Progressive
Compression mode                         : Lossy
Bits/(Pixel*Frame)                       : 0.331
Stream size                              : 1.81 GiB (83%)
Writing library                          : XviD 65

Audio
ID                                       : 1
Format                                   : AC-3
Format/Info                              : Audio Coding 3
Mode extension                           : CM (complete main)
Codec ID                                 : 2000
Duration                                 : 1h 55mn
Bit rate mode                            : Constant
Bit rate                                 : 448 Kbps
Channel(s)                               : 6 channels
Channel positions                        : Front: L C R, Side: L R, LFE
Sampling rate                            : 48.0 KHz
Bit depth                                : 16 bits
Compression mode                         : Lossy
Stream size                              : 372 MiB (17%)
Alignment                                : Split accross interleaves
Interleave, duration                     : 42 ms (1.00 video frame)
Interleave, preload duration             : 500 ms
1. Satellite 15
2. The Final Frontier
3. El Dorado
4. 2 Minutes To Midnight
5. The Talisman
6. Coming Home
7. Dance Of Death
8. The Trooper
9. The Wicker Man
10. Blood Brothers
11. When The Wild Wind Blows
12. The Evil That Men Do
13. Fear Of The Dark
14. Iron Maiden
15. The Number Of The Beast
16. Hallowed Be Thy Name
17. Running Free


   
Торрент: Зарегистрирован [Апрель 28, 2013, 11:41 am]
Клипы Скачать торрент Магнет ссылка Смотреть онлайн
Скачать торрент
[ Размер 11.43 КБ / Просмотров 51 ]
Статус:
---
---
.torrent скачан: 6 раз
Приватный: Нет (DHT включён)
Размер: 2.19 ГБ (2 346 663 936)
   
Аватара пользователя
Denny
 
Раздал: 7.49 ТБ
Скачал: 807.97 ГБ
Ратио: 1007.499
Сообщения: 1934
Зарегистрирован: Ноябрь 19, 2012, 10:49 pm
Откуда: Россия

Флаг страны: Russia

Вернуться в Клипы



Кто сейчас на конференции

Сейчас эту тему просматривают: нет зарегистрированных пользователей и гости: 1

cron
Ресурс не содержит никакой другой информации, кроме описаний отдельных файлов или их групп, имеющихся у некоторых пользователей данного ресурса. Подтверждением наличия данных файлов у пользователя может иногда являться специальный набор значений, представляющих собой результаты применения односторонних хеш-функций к этим файлам или их группам. Данные наборы значений объединяются пользователями в единое целое и могут быть выложены ими вместе с описаниями имеющихся у них файлов. Администрация данного ресурса не имеет физической возможности убедиться, что описания файлов, выложенные нашими пользователями, равно как и созданные ими наборы хешей от файлов, соответствуют реальным файлам имеющимся у пользователей, а не созданы каким-либо иным способом.
cron
Яндекс.Метрика