Юбилейный концерт Стаса Михайлова - 20 лет в пути (2013) HDTVRip 720p

Видеоклипы
 Статистика раздачи 
Размер: 4.32 ГБ   |  Зарегистрирован: Май 3, 2013, 4:53 pm   |   .torrent скачан: 92 раз
Сидеров: 44  [ 0 байт/сек ]   Личеров: 3  [ 0 байт/сек ]  

Юбилейный концерт Стаса Михайлова - 20 лет в пути (2013) HDTVRip 720p

Сообщение Denny » Май 3, 2013, 4:53 pm

Информация о фильме
Оригинальное название: Юбилейный концерт Стаса Михайлова - 20 лет в пути
Год выпуска: 2013
Жанр: Концерт

О концерте:
Любимец публики, один из самых популярных артистов страны, Стас Михайлов всегда откровенен со зрителями. Его песни о любви затрагивают самые потаенные уголки души. Стас Михайлов с удовольствием общается с поклонниками, и эта любовь взаимна. Везде его ждут с нетерпением! 1 мая в эфире Первого канала состоится долгожданный концерт "20 лет в пути"! Любимые артисты исполнят популярные хиты дуэтом со Стасом Михайловым и поздравят его с юбилеем концертной деятельности. В концерте примут участие: белорусские "Песняры", "Челси", В. Дробыш, И. Кобзон, М. Олейников, , Н. Королева, А. Лорак, Т. Кароль, С. Павлиашвили, О. Газманов, А. Глызин, Т. Повалий, Н. Бабкина и театр "Русская песня", А. Буйнов, А. Спиридонова, Штар, В. Винокур и Л. Лещенко, турецкая группа Enbe Orkestrasi

Страна: Россия
Студия: Первый канал
Продолжительность: 01:54:50

Файл
Качество: HDTVRip 720p
Видео: MPEG-4 AVC, 5000 Кбит/c, 1280x720, 25.000 кадр/c
Звук: Русский (AC3, 2 ch, 384 Кбит/c)


01 Стас Михайлов - Я ждал
02 Стас Михайлов и Челси - Если бы не ты
03 Стас Михайлов и Наташа Королёва - Где ты
04 Стас Михайлов и Алексей Глызин - Птицей раненой
05 Стас Михайлов и Ани Лорак - Холодно
06 Стас Михайлов и Песняры - Небеса
07 Стас Михайлов и Сосо Павлиашвили - Мама
08 Стас Михайлов и Таисия Повалий - Отпусти
09 Стас Михайлов и Надежда Бабкина - Ой, то не ветер
10 Стас Михайлов - Свет звезды
11 Стас Михайлов - Где-то там
12 Стас Михайлов и Владимир Винокур - Без тебя
13 Стас Михайлов и Иосиф Кобзон Уходите
14 Стас Михайлов и Зара - Спящая красавица
15 Стас Михайлов и Флиипп Киркоров - Королева
16 Стас Михайлов и Александр Буйнов - Отпускаю
17 Стас Михайлов и Настя Спиридонова -Две души
18 Стас Михайлов и Тина Кароль - Моя душа
19 Стас Михайлов и Рустам Штар - Париж, Париж
20 Стас Михайлов - Оставь
21 Стас Михайлов и Максим Олейников - Берега мечты
22 Стас Михайлов - Ты одна
23 Стас Михайлов и Enbe orkestrasi - Ну, вот и всё / Senden kiymetu mi?
24 Стас Михайлов и Олег Газманов - Странник
25 Стас Михайлов - Спаси меня
26 Стас Михайлов - Мой путь





Общее
Уникальный идентификатор                 : 235627183173188701274817584159403640578 (0xB144251033EEAF6690753EDE9C658702)
Формат                                   : Matroska
Версия формата                           : Version 2
Размер файла                             : 1,85 Гбайт
Продолжительность                        : 49 м.
Общий поток                              : 5386 Кбит/сек
Название фильма                          : Стас Михайлов - Юбилейный концерт (MediaClub-kaspr)
Дата кодирования                         : UTC 2013-05-02 11:16:57
Программа кодирования                    : mkvmerge v5.7.0 ('The Whirlwind') built on Aug  7 2012 14:11:40
Библиотека кодирования                   : libebml v1.2.3 + libmatroska v1.3.0

Видео
Идентификатор                            : 1
Формат                                   : AVC
Формат/Информация                        : Advanced Video Codec
Профиль формата                          : High@L4.1
Параметр CABAC формата                   : Да
Параметр ReFrames формата                : 8 кадров
Идентификатор кодека                     : V_MPEG4/ISO/AVC
Продолжительность                        : 49 м.
Битрейт                                  : 5000 Кбит/сек
Ширина                                   : 1280 пикселей
Высота                                   : 720 пикселей
Соотношение сторон                       : 16:9
Режим частоты кадров                     : Постоянный
Частота кадров                           : 25,000 кадров/сек
Цветовое пространство                    : YUV
Субдискретизация насыщенности            : 4:2:0
Битовая глубина                          : 8 бит
Тип развёртки                            : Прогрессивная
Бит/(Пиксели*Кадры)                      : 0.217
Размер потока                            : 1,68 Гбайт (91%)
Заголовок                                : Стас Михайлов - Юбилейный концерт (MediaClub-kaspr)
Библиотека кодирования                   : x264 core 130 r2273 b3065e6
Настройки программы                      : cabac=1 / ref=8 / deblock=1:-3:-3 / analyse=0x3:0x133 / me=umh / subme=11 / psy=1 / psy_rd=1.00:0.10 / mixed_ref=1 / me_range=32 / chroma_me=1 / trellis=2 / 8x8dct=1 / cqm=0 / deadzone=21,11 / fast_pskip=0 / chroma_qp_offset=-3 / threads=12 / lookahead_threads=1 / sliced_threads=0 / nr=0 / decimate=0 / interlaced=0 / bluray_compat=0 / constrained_intra=0 / bframes=6 / b_pyramid=2 / b_adapt=2 / b_bias=0 / direct=3 / weightb=1 / open_gop=0 / weightp=2 / keyint=250 / keyint_min=23 / scenecut=40 / intra_refresh=0 / rc_lookahead=40 / rc=2pass / mbtree=1 / bitrate=5000 / ratetol=1.0 / qcomp=0.60 / qpmin=0 / qpmax=69 / qpstep=4 / cplxblur=20.0 / qblur=0.5 / ip_ratio=1.40 / aq=1:1.00
Default                                  : Да
Forced                                   : Нет

Аудио
Идентификатор                            : 2
Формат                                   : AC-3
Формат/Информация                        : Audio Coding 3
Расширение режима                        : CM (complete main)
Параметр Endianness формата              : Big
Идентификатор кодека                     : A_AC3
Продолжительность                        : 49 м.
Вид битрейта                             : Постоянный
Битрейт                                  : 384 Кбит/сек
Каналы                                   : 2 канала
Расположение каналов                     : Front: L R
Частота                                  : 48,0 КГц
Битовая глубина                          : 16 бит
Метод сжатия                             : С потерями
Размер потока                            : 135 Мбайт (7%)
Язык                                     : Russian
Default                                  : Да
Forced                                   : Нет

Общее
Уникальный идентификатор                 : 182947919482982703202109693002426601598 (0x89A27CD5F2439E59944A8AD2F043D07E)
Полное имя                               : D:Mои раздачиStas.Mihaylov-20.Let.v.Puti.2013.HDTVRip.(720p)_MediaClubStas.Mihaylov-20.Let.v.Puti.(2.chastj).2013.HDTVRip.(720p)_MediaClub.mkv
Формат                                   : Matroska
Версия формата                           : Version 2
Размер файла                             : 2,47 Гбайт
Продолжительность                        : 1 ч. 5 м.
Общий поток                              : 5385 Кбит/сек
Название фильма                          : Стас Михайлов - Юбилейный концерт (MediaClub-kaspr)
Дата кодирования                         : UTC 2013-05-02 16:16:43
Программа кодирования                    : mkvmerge v5.7.0 ('The Whirlwind') built on Aug  7 2012 14:11:40
Библиотека кодирования                   : libebml v1.2.3 + libmatroska v1.3.0

Видео
Идентификатор                            : 1
Формат                                   : AVC
Формат/Информация                        : Advanced Video Codec
Профиль формата                          : High@L4.1
Параметр CABAC формата                   : Да
Параметр ReFrames формата                : 8 кадров
Идентификатор кодека                     : V_MPEG4/ISO/AVC
Продолжительность                        : 1 ч. 5 м.
Битрейт                                  : 5000 Кбит/сек
Ширина                                   : 1280 пикселей
Высота                                   : 720 пикселей
Соотношение сторон                       : 16:9
Режим частоты кадров                     : Постоянный
Частота кадров                           : 25,000 кадров/сек
Цветовое пространство                    : YUV
Субдискретизация насыщенности            : 4:2:0
Битовая глубина                          : 8 бит
Тип развёртки                            : Прогрессивная
Бит/(Пиксели*Кадры)                      : 0.217
Размер потока                            : 2,25 Гбайт (91%)
Заголовок                                : Стас Михайлов - Юбилейный концерт (MediaClub-kaspr)
Библиотека кодирования                   : x264 core 130 r2273 b3065e6
Настройки программы                      : cabac=1 / ref=8 / deblock=1:-3:-3 / analyse=0x3:0x133 / me=umh / subme=11 / psy=1 / psy_rd=1.00:0.10 / mixed_ref=1 / me_range=32 / chroma_me=1 / trellis=2 / 8x8dct=1 / cqm=0 / deadzone=21,11 / fast_pskip=0 / chroma_qp_offset=-3 / threads=12 / lookahead_threads=1 / sliced_threads=0 / nr=0 / decimate=0 / interlaced=0 / bluray_compat=0 / constrained_intra=0 / bframes=6 / b_pyramid=2 / b_adapt=2 / b_bias=0 / direct=3 / weightb=1 / open_gop=0 / weightp=2 / keyint=250 / keyint_min=23 / scenecut=40 / intra_refresh=0 / rc_lookahead=40 / rc=2pass / mbtree=1 / bitrate=5000 / ratetol=1.0 / qcomp=0.60 / qpmin=0 / qpmax=69 / qpstep=4 / cplxblur=20.0 / qblur=0.5 / ip_ratio=1.40 / aq=1:1.00
Default                                  : Да
Forced                                   : Нет

Аудио
Идентификатор                            : 2
Формат                                   : AC-3
Формат/Информация                        : Audio Coding 3
Расширение режима                        : CM (complete main)
Параметр Endianness формата              : Big
Идентификатор кодека                     : A_AC3
Продолжительность                        : 1 ч. 5 м.
Вид битрейта                             : Постоянный
Битрейт                                  : 384 Кбит/сек
Каналы                                   : 2 канала
Расположение каналов                     : Front: L R
Частота                                  : 48,0 КГц
Битовая глубина                          : 16 бит
Метод сжатия                             : С потерями
Размер потока                            : 181 Мбайт (7%)
Язык                                     : Russian
Default                                  : Да
Forced                                   : Нет


   
Торрент: Зарегистрирован [Май 3, 2013, 4:53 pm]
Клипы Скачать торрент Магнет ссылка Смотреть онлайн
Скачать торрент
[ Размер 11.5 КБ / Просмотров 81 ]
Статус:
---
---
.torrent скачан: 92 раз
Приватный: Нет (DHT включён)
Размер: 4.32 ГБ (4 638 163 663)
   
Аватара пользователя
Denny
 
Раздал: 7.49 ТБ
Скачал: 807.97 ГБ
Ратио: 1007.499
Сообщения: 1934
Зарегистрирован: Ноябрь 19, 2012, 10:49 pm
Откуда: Россия

Флаг страны: Russia

Вернуться в Клипы



Кто сейчас на конференции

Сейчас эту тему просматривают: нет зарегистрированных пользователей и гости: 1

Ресурс не содержит никакой другой информации, кроме описаний отдельных файлов или их групп, имеющихся у некоторых пользователей данного ресурса. Подтверждением наличия данных файлов у пользователя может иногда являться специальный набор значений, представляющих собой результаты применения односторонних хеш-функций к этим файлам или их группам. Данные наборы значений объединяются пользователями в единое целое и могут быть выложены ими вместе с описаниями имеющихся у них файлов. Администрация данного ресурса не имеет физической возможности убедиться, что описания файлов, выложенные нашими пользователями, равно как и созданные ими наборы хешей от файлов, соответствуют реальным файлам имеющимся у пользователей, а не созданы каким-либо иным способом.
cron
Яндекс.Метрика