Агент Джонни Инглиш: Дилогия / Johnny English: Dilogy (2003-2011) BDRip 720p (DVD5) от NoLimits-Team

Фильмы в формате DVD
 Статистика раздачи 
Размер: 8.73 ГБ   |  Зарегистрирован: Май 6, 2013, 12:35 pm   |   .torrent скачан: 163 раз
Сидеров: 8  [ 0 байт/сек ]   Личеров: 3  [ 0 байт/сек ]  

Агент Джонни Инглиш: Дилогия / Johnny English: Dilogy (2003-2011) BDRip 720p (DVD5) от NoLimits-Team

Сообщение sergey » Май 6, 2013, 12:35 pm

Название: Агент Джонни Инглиш: Дилогия / Johnny English: Dilogy (2003-2011) BDRip 720p (DVD5) от NoLimits-Team

Информация о фильме
Название: Агент Джонни Инглиш: Дилогия
Оригинальное название: Johnny English: Dilogy
Год выхода: 2003 | 2011
Жанр: Боевик, комедия, приключения
Режиссер:  Питер Хауит, Оливер Паркер
Продолжительность: 01:27:25 | 01:41:21



Информация о фильме
Название: Агент Джонни Инглиш
Оригинальное название: Johnny English
Год выхода: 2003
Жанр: боевик, комедия, приключения
Режиссер: Питер Хауит
Выпущено: США
Продолжительность: 01:27:25
Перевод: Дублированный
В ролях: Роуэн Эткинсон, Натали Имбрулья, Бен Миллер, Джон Малкович, Тим Пиготт-Смит, Кевин МакНэлли, Оливер Форд Дэвис, Дуглас МакФерран, Таша ди Вашконселуш, Грег Уайз

Сюжет фильма
История самого некомпетентного и недалекого Британского дипломата, которого только можно представить, которого ошибочно принимают за самого знаменитого и опасного шпиона Великобритании, Джонни Инглиша. Из-за этой путаницы герой оказывается вовлеченным в смертельную схватку с авторами очередного дьявольского плана.

Файл
Качество: BDRip 720p (DVD5) (исходник Blu-Ray Disc)
Видео: 1280x694, 6255 Кбит/сек, 23,976 кадр/сек, AVC, x264, High@L4.1, 1.85:1, 0.294 Бит/[Пиксели*Кадры], 2pass
Аудио 1: AC-3, 448 Кбит/сек, 6 канала(ов), 48,0 КГц - Дублированный / Русский
Аудио 2: AC-3, 448 Кбит/сек, 6 канала(ов), 48,0 КГц - Оригинал / Английский
Субтитры: Русские | Полные
Чаптеры: Есть




Format                                   : Matroska
Format version                           : Version 4 / Version 2
File size                                : 4.37 GiB
Duration                                 : 1h 27mn
Overall bit rate                         : 7 148 Kbps
Movie name                               : Агент Джонни Инглиш.(2003).BDRip.720p.(DVD5).[NoLimits-Team]
Encoded date                             : UTC 2013-05-05 07:31:40
Writing application                      : mkvmerge v6.0.0 ('Coming Up For Air') built on Jan 20 2013 09:52:00
Writing library                          : libebml v1.3.0 + libmatroska v1.4.0

Video
ID                                       : 1
Format                                   : AVC
Format/Info                              : Advanced Video Codec
Format profile                           : High@L4.1
Format settings, CABAC                   : Yes
Format settings, ReFrames                : 9 frames
Codec ID                                 : V_MPEG4/ISO/AVC
Duration                                 : 1h 27mn
Bit rate                                 : 6 255 Kbps
Width                                    : 1 280 pixels
Height                                   : 694 pixels
Display aspect ratio                     : 1.85:1
Frame rate mode                          : Constant
Frame rate                               : 23.976 fps
Color space                              : YUV
Chroma subsampling                       : 4:2:0
Bit depth                                : 8 bits
Scan type                                : Progressive
Bits/(Pixel*Frame)                       : 0.294
Stream size                              : 3.73 GiB (85%)
Title                                    : Агент Джонни Инглиш.(2003).BDRip.720p.(DVD5).[NoLimits-Team]
Writing library                          : x264 core 130 r2273 b3065e6
Encoding settings                        : cabac=1 / ref=9 / deblock=1:0:0 / analyse=0x3:0x133 / me=umh / subme=11 / psy=1 / psy_rd=1.00:0.00 / mixed_ref=1 / me_range=64 / chroma_me=1 / trellis=2 / 8x8dct=1 / cqm=0 / deadzone=21,11 / fast_pskip=0 / chroma_qp_offset=-2 / threads=9 / lookahead_threads=2 / sliced_threads=0 / nr=0 / decimate=1 / interlaced=0 / bluray_compat=0 / constrained_intra=0 / bframes=14 / b_pyramid=2 / b_adapt=2 / b_bias=0 / direct=3 / weightb=1 / open_gop=0 / weightp=2 / keyint=240 / keyint_min=23 / scenecut=40 / intra_refresh=0 / rc_lookahead=60 / rc=2pass / mbtree=1 / bitrate=6255 / ratetol=1.0 / qcomp=0.60 / qpmin=0 / qpmax=69 / qpstep=4 / cplxblur=20.0 / qblur=0.5 / ip_ratio=1.40 / aq=1:1.00
Language                                 : English
Default                                  : Yes
Forced                                   : No

Audio #1
ID                                       : 2
Format                                   : AC-3
Format/Info                              : Audio Coding 3
Mode extension                           : CM (complete main)
Format settings, Endianness              : Big
Codec ID                                 : A_AC3
Duration                                 : 1h 27mn
Bit rate mode                            : Constant
Bit rate                                 : 448 Kbps
Channel(s)                               : 6 channels
Channel positions                        : Front: L C R, Side: L R, LFE
Sampling rate                            : 48.0 KHz
Bit depth                                : 16 bits
Compression mode                         : Lossy
Stream size                              : 280 MiB (6%)
Title                                    : Дублированный
Language                                 : Russian
Default                                  : Yes
Forced                                   : No

Audio #2
ID                                       : 3
Format                                   : AC-3
Format/Info                              : Audio Coding 3
Mode extension                           : CM (complete main)
Format settings, Endianness              : Big
Codec ID                                 : A_AC3
Duration                                 : 1h 27mn
Bit rate mode                            : Constant
Bit rate                                 : 448 Kbps
Channel(s)                               : 6 channels
Channel positions                        : Front: L C R, Side: L R, LFE
Sampling rate                            : 48.0 KHz
Bit depth                                : 16 bits
Compression mode                         : Lossy
Stream size                              : 280 MiB (6%)
Title                                    : Английский
Language                                 : English
Default                                  : No
Forced                                   : No

Text
ID                                       : 4
Format                                   : UTF-8
Codec ID                                 : S_TEXT/UTF8
Codec ID/Info                            : UTF-8 Plain Text
Title                                    : Русские (полные)
Language                                 : Russian
Default                                  : No
Forced                                   : No

Menu
00:00:00.000                             : :Chapter 01
00:03:55.318                             : :Chapter 02
00:08:12.867                             : :Chapter 03
00:14:05.094                             : :Chapter 04
00:17:51.403                             : :Chapter 05
00:22:31.600                             : :Chapter 06
00:26:45.729                             : :Chapter 07
00:33:33.678                             : :Chapter 08
00:39:12.433                             : :Chapter 09
00:46:41.673                             : :Chapter 10
00:49:05.734                             : :Chapter 11
00:54:09.913                             : :Chapter 12
00:57:37.745                             : :Chapter 13
01:02:20.319                             : :Chapter 14
01:04:59.020                             : :Chapter 15
01:08:55.297                             : :Chapter 16
01:13:08.384                             : :Chapter 17
01:18:03.637                             : :Chapter 18
01:21:19.708                             : :Chapter 19
01:22:56.304                             : :Chapter 20


Информация о фильме
Название: Агент Джонни Инглиш: Перезагрузка
Оригинальное название: Johnny English Reborn
Год выхода: 2011
Жанр: боевик, комедия, приключения
Режиссер: Оливер Паркер
Выпущено: США
Продолжительность: 01:41:21
Перевод: Дублированный
В ролях: Роуэн Эткинсон, Джиллиан Андерсон, Роджер Барклай, Эрик Карте, Того Игава, Элинор Уайлд, Мэнди Сидху, Маргарет Клуни, Розамунд Пайк, Доминик Уэст

Сюжет фильма
Действие фильма разворачивается через 8 лет после событий предшествующего фильма и с тех пор карьера сэра Джонни Инглиша ухудшается. За 5 лет до начала фильма его направили с заданием в Мозамбик, но миссия пошла ужасно плохо. С тех пор он живёт в пещере в горах Тибета, прячась ото всех из-за стыда, сожалений и обвинений в провале миссии. Фильм начинается, когда герой находится на крайне низком моральном уровне, пока ему не дают ещё один шанс. Британская разведка МИ-7 снова нуждается в нём и ей надо вернуть агента, чтобы тот сорвал заговор группы киллеров, планирующих убить китайского премьер-министра.

Файл
Качество: BDRip 720p (DVD5) (исходник Blu-Ray Disc)
Видео: 1280x534, 5271 Кбит/сек, 23,976 кадр/сек, AVC, x264, High@L4.1, 2.40:1, 0.322 Бит/[Пиксели*Кадры], 2pass
Аудио 1: AC-3, 448 Кбит/сек, 6 канала(ов), 48,0 КГц - Дублированный / Русский
Аудио 2: AC-3, 448 Кбит/сек, 6 канала(ов), 48,0 КГц - Оригинал / Английский
Субтитры: Русские | Полные
Чаптеры: Есть




Format                                   : Matroska
Format version                           : Version 4 / Version 2
File size                                : 4.37 GiB
Duration                                 : 1h 41mn
Overall bit rate                         : 6 168 Kbps
Movie name                               : Агент Джонни Инглиш: Перезагрузка.(2011).BDRip.720p.(DVD5).[NoLimits-Team]
Encoded date                             : UTC 2013-05-05 17:35:09
Writing application                      : mkvmerge v6.0.0 ('Coming Up For Air') built on Jan 20 2013 09:52:00
Writing library                          : libebml v1.3.0 + libmatroska v1.4.0

Video
ID                                       : 1
Format                                   : AVC
Format/Info                              : Advanced Video Codec
Format profile                           : High@L4.1
Format settings, CABAC                   : Yes
Format settings, ReFrames                : 12 frames
Codec ID                                 : V_MPEG4/ISO/AVC
Duration                                 : 1h 41mn
Bit rate                                 : 5 271 Kbps
Width                                    : 1 280 pixels
Height                                   : 534 pixels
Display aspect ratio                     : 2.40:1
Frame rate mode                          : Constant
Frame rate                               : 23.976 fps
Color space                              : YUV
Chroma subsampling                       : 4:2:0
Bit depth                                : 8 bits
Scan type                                : Progressive
Bits/(Pixel*Frame)                       : 0.322
Stream size                              : 3.65 GiB (83%)
Title                                    : Агент Джонни Инглиш: Перезагрузка.(2011).BDRip.720p.(DVD5).[NoLimits-Team]
Writing library                          : x264 core 132 r2309 3b1f1f7
Encoding settings                        : cabac=1 / ref=12 / deblock=1:0:0 / analyse=0x3:0x133 / me=umh / subme=11 / psy=1 / psy_rd=1.00:0.00 / mixed_ref=1 / me_range=64 / chroma_me=1 / trellis=2 / 8x8dct=1 / cqm=0 / deadzone=21,11 / fast_pskip=0 / chroma_qp_offset=-2 / threads=9 / lookahead_threads=2 / sliced_threads=0 / nr=0 / decimate=1 / interlaced=0 / bluray_compat=0 / constrained_intra=0 / bframes=14 / b_pyramid=2 / b_adapt=2 / b_bias=0 / direct=3 / weightb=1 / open_gop=0 / weightp=2 / keyint=240 / keyint_min=23 / scenecut=40 / intra_refresh=0 / rc_lookahead=60 / rc=2pass / mbtree=1 / bitrate=5271 / ratetol=1.0 / qcomp=0.60 / qpmin=0 / qpmax=69 / qpstep=4 / cplxblur=20.0 / qblur=0.5 / ip_ratio=1.40 / aq=1:1.00
Language                                 : English
Default                                  : Yes
Forced                                   : No

Audio #1
ID                                       : 2
Format                                   : AC-3
Format/Info                              : Audio Coding 3
Mode extension                           : CM (complete main)
Format settings, Endianness              : Big
Codec ID                                 : A_AC3
Duration                                 : 1h 41mn
Bit rate mode                            : Constant
Bit rate                                 : 448 Kbps
Channel(s)                               : 6 channels
Channel positions                        : Front: L C R, Side: L R, LFE
Sampling rate                            : 48.0 KHz
Bit depth                                : 16 bits
Compression mode                         : Lossy
Stream size                              : 325 MiB (7%)
Title                                    : Дублированный
Language                                 : Russian
Default                                  : Yes
Forced                                   : No

Audio #2
ID                                       : 3
Format                                   : AC-3
Format/Info                              : Audio Coding 3
Mode extension                           : CM (complete main)
Format settings, Endianness              : Big
Codec ID                                 : A_AC3
Duration                                 : 1h 41mn
Bit rate mode                            : Constant
Bit rate                                 : 448 Kbps
Channel(s)                               : 6 channels
Channel positions                        : Front: L C R, Side: L R, LFE
Sampling rate                            : 48.0 KHz
Bit depth                                : 16 bits
Compression mode                         : Lossy
Stream size                              : 325 MiB (7%)
Title                                    : Английский
Language                                 : English
Default                                  : No
Forced                                   : No

Text
ID                                       : 4
Format                                   : UTF-8
Codec ID                                 : S_TEXT/UTF8
Codec ID/Info                            : UTF-8 Plain Text
Title                                    : Русские (полные)
Language                                 : Russian
Default                                  : No
Forced                                   : No

Menu
00:05:00.000                             : :Chapter 01
00:10:00.000                             : :Chapter 02
00:15:00.000                             : :Chapter 03
00:25:00.000                             : :Chapter 04
00:35:00.000                             : :Chapter 05
00:45:00.000                             : :Chapter 06
00:55:00.000                             : :Chapter 07
01:05:00.000                             : :Chapter 08
01:15:00.000                             : :Chapter 09
01:25:00.000                             : :Chapter 10
01:35:00.000                             : :Chapter 11
   
Торрент: Зарегистрирован [Май 6, 2013, 12:35 pm]
Видео DVD Скачать торрент Магнет ссылка Смотреть онлайн
Скачать торрент
[ Размер 22.95 КБ / Просмотров 65 ]
Статус:
---
---
.torrent скачан: 163 раз
Приватный: Нет (DHT включён)
Размер: 8.73 ГБ (9 376 198 469)
   
Аватара пользователя
sergey
 
Раздал: 42.54 ТБ
Скачал: 198.69 ГБ
Ратио: 265.234
Сообщения: 5350
Зарегистрирован: Август 6, 2012, 2:11 pm
Откуда: СССР

Флаг страны: СССР

Вернуться в Видео DVD



Кто сейчас на конференции

Сейчас эту тему просматривают: нет зарегистрированных пользователей и гости: 1

Ресурс не содержит никакой другой информации, кроме описаний отдельных файлов или их групп, имеющихся у некоторых пользователей данного ресурса. Подтверждением наличия данных файлов у пользователя может иногда являться специальный набор значений, представляющих собой результаты применения односторонних хеш-функций к этим файлам или их группам. Данные наборы значений объединяются пользователями в единое целое и могут быть выложены ими вместе с описаниями имеющихся у них файлов. Администрация данного ресурса не имеет физической возможности убедиться, что описания файлов, выложенные нашими пользователями, равно как и созданные ими наборы хешей от файлов, соответствуют реальным файлам имеющимся у пользователей, а не созданы каким-либо иным способом.
cron
Яндекс.Метрика