Котёнок (1996) DVDRip

Фильмы в формате DVD
 Статистика раздачи 
Размер: 1.36 ГБ   |  Зарегистрирован: Май 21, 2013, 12:50 pm   |   .torrent скачан: 1 раз
Сидеров: 0  [ 0 байт/сек ]   Личеров: 0  [ 0 байт/сек ]  

Котёнок (1996) DVDRip

Сообщение Denny » Май 21, 2013, 12:50 pm

Котёнок

Год выпуска: 1996
Жанр: фильм о животных, мелодрама, семейный
Режиссёр: Иван Попов
В ролях: Андрей Кузнецов, Людмила Аринина, Алексей Войтюк, Татьяна Грауз, Мария Попова, Александр Попов, Александр Чургин, Александр Песков, Олег Вершинин, Андрей Звягинцев

Описание: Сюжет в данной картине — лишь для условной привязки эпизодов к общей теме. А тема эта — доброта. В частности — любовь к животным. Так что, если вы не любите кошек — смотреть не стоит. А вот если любите, пусть хоть немного — получите удовольствие обязательно. Даже и просто от их количества и разнообразия. А еще они и все главные роли играют.

Страна: Россия
Продолжительность: 01:20:30
Перевод: Не требуется

Качество видео: DVDRip, исходник -
Формат видео: AVI
Видео: 688x528 (1.30:1), 25 fps, XviD build 64 ~2217 kbps avg, 0.24 bit/pixel
Аудио: 48 kHz, AC3 Dolby Digital, 2/0 (L,R) ch, ~192 kbps

Общее
Полное имя : Котенок.avi
Формат : AVI
Формат/Информация : Audio Video Interleave
Размер файла : 1,36 Гбайт
Продолжительность : 1 ч. 20 м.
Общий поток : 2420 Кбит/сек
Программа кодирования : VirtualDubModRus 1.5.10.2 (build 2540/release)
Библиотека кодирования : VirtualDubMod build 2540/release
Видео
Идентификатор : 0
Формат : MPEG-4 Visual
Профиль формата : Advanced Simple@L5
Параметр BVOP формата : 1
Параметр QPel формата : Нет
Параметр GMC формата : Без точки перехода
Параметр матрицы формата : Выборочная
Идентификатор кодека : XVID
Идентификатор кодека/Подсказка : XviD
Продолжительность : 1 ч. 20 м.
Битрейт : 2218 Кбит/сек
Ширина : 688 пикселей
Высота : 528 пикселей
Соотношение сторон : 4:3
Частота кадров : 25,000 кадров/сек
Цветовое пространство : YUV
Субдискретизация насыщенности : 4:2:0
Битовая глубина : 8 бит
Тип развёртки : Прогрессивная
Метод сжатия : С потерями
Бит/(Пиксели*Кадры) : 0.244
Размер потока : 1,25 Гбайт (92%)
Библиотека кодирования : XviD 64
Аудио
Идентификатор : 1
Формат : AC-3
Формат/Информация : Audio Coding 3
Расширение режима : CM (complete main)
Идентификатор кодека : 2000
Продолжительность : 1 ч. 20 м.
Вид битрейта : Постоянный
Битрейт : 192 Кбит/сек
Каналы : 2 канала
Расположение каналов : Front: L R
Частота : 48,0 КГц
Битовая глубина : 16 бит
Метод сжатия : С потерями
Задержка видео : 16 мс.
Размер потока : 111 Мбайт (8%)
Выравнивание : Разделение по промежуткам
Продолжительность промежутка : 40 мс. (1,00 видеокадр)
Время предзагрузки промежутка : 500 мс.



       


   
Торрент: Зарегистрирован [Май 21, 2013, 12:50 pm]
Видео DVD Скачать торрент Магнет ссылка Смотреть онлайн
Скачать торрент
[ Размер 14.15 КБ / Просмотров 47 ]
Статус:
---
---
.torrent скачан: 1 раз
Приватный: Нет (DHT включён)
Размер: 1.36 ГБ (1 460 965 376)
   
Аватара пользователя
Denny
 
Раздал: 7.49 ТБ
Скачал: 807.97 ГБ
Ратио: 1007.499
Сообщения: 1934
Зарегистрирован: Ноябрь 19, 2012, 10:49 pm
Откуда: Россия

Флаг страны: Russia

  • Похожие торренты
    Ответы
    Просмотры
    Последнее сообщение

Вернуться в Видео DVD



Кто сейчас на конференции

Сейчас эту тему просматривают: нет зарегистрированных пользователей и гости: 1

cron
Ресурс не содержит никакой другой информации, кроме описаний отдельных файлов или их групп, имеющихся у некоторых пользователей данного ресурса. Подтверждением наличия данных файлов у пользователя может иногда являться специальный набор значений, представляющих собой результаты применения односторонних хеш-функций к этим файлам или их группам. Данные наборы значений объединяются пользователями в единое целое и могут быть выложены ими вместе с описаниями имеющихся у них файлов. Администрация данного ресурса не имеет физической возможности убедиться, что описания файлов, выложенные нашими пользователями, равно как и созданные ими наборы хешей от файлов, соответствуют реальным файлам имеющимся у пользователей, а не созданы каким-либо иным способом.
cron
Яндекс.Метрика