Корпорация Монстров / Monsters, Inc. (2001) BDRip [720p] от HQ-ViDEO

Мультфильмы
 Статистика раздачи 
Размер: 4.66 ГБ   |  Зарегистрирован: Май 22, 2013, 3:40 pm   |   .torrent скачан: 1 раз
Сидеров: 0  [ 0 байт/сек ]   Личеров: 0  [ 0 байт/сек ]  

Корпорация Монстров / Monsters, Inc. (2001) BDRip [720p] от HQ-ViDEO

Сообщение Denny » Май 22, 2013, 3:40 pm

Корпорация Монстров / Monsters, Inc. (2001) BDRip [720p]
Жанр: Анимационный, Приключения, Комедия, Семейный, Фэнтези
Год: 2001
Студия: Pixar Animation Studios, Walt Disney Picturesю.
Режиссер: Питер Доктер /Peter Docter/, Дэвид Силверман /David Silverman/.

В ролях: Билли Кристал /Billy Crystal/, Джон Гудмэн /John Goodman/, Джеймс Коберн /James Coburn/, Дженифер Тилли /Jennifer Tilly/, Бонни Хант /Bonnie Hunt/, Мэри Гиббс /Mary Gibbs/, Стив Бушеми /Steve Buscemi/, Сэм Блак /Sam Black/.

Описание: Хочешь узнать что может скрываться за дверцей обычного шкафа? Disney приглашает всех вас в славный город Монстрополис, что лежит в параллельном мире. Его населяют на лицо ужасные, но забавные и совсем не злые чудища, для которых пугать детей - просто работа: детские страхи у них вместо электричества и питают машины, лампочки и телевизоры. Смешнее всего, что даже самые опытные пугатели вроде синего рогатого медведя Салли и его суматошного одноглазого друга Майка сами до ужаса боятся детишек! И когда однажды в их мир из нашего случайно пробирается бесстрашная и неистощимая на каверзы девочка Бу, в Монстрополисе поднимается такой переполох, которого город чудищ еще не видел!

********** Monsters, Inc. (2001) ***********

Release Date: 07.10.2010

Release Info:

           Author ........: GYN

           Runtime .......: 01:32:16 min
           Video Format ..: MKV, H.264 codec
           Video Bitrate .: 5 746 kbps
           Bits per Pixel : 0.272 bit/pixel  
           Resolution ....: 1 280 x 688
           Aspect Ratio ..: 1.85:1
           Framerate .....: 23.976 fps

           Audio First....: Russian AC3 Dolby Digital; 448.00 kbps; 5.1 Ch; 48 kHz
           Audio Second...: English AC3 Dolby Digital; 448.00 kbps; 5.1 Ch; 48 kHz          
           
           Subtitle.......: Russian, English.

           File Size .....: 4.37 GB
           Source.........: Blu-ray Disc

General
Complete name : Korporatsiya.Monstrov.2001.DUAL.BDRip.720p.h264.AC 3.mkv
Format : Matroska
File size : 4.37 GiB
Duration : 1h 32mn
Overall bit rate : 6 777 Kbps
Movie name : Monsters, Inc (2001)
Encoded date : UTC 2010-10-07 10:41:02
Writing application : mkvmerge v3.3.0 ('Language') built on Mar 24 2010 14:59:24
Writing library : libebml v0.8.0 + libmatroska v0.9.0

Video
ID : 1
Format : AVC
Format/Info : Advanced Video Codec
Format profile : High@L4.1
Format settings, CABAC : Yes
Format settings, ReFrames : 6 frames
Muxing mode : Container profile=Unknown@4.1
Codec ID : V_MPEG4/ISO/AVC
Duration : 1h 32mn
Bit rate : 5 746 Kbps
Width : 1 280 pixels
Height : 688 pixels
Display aspect ratio : 1.860
Frame rate : 23.976 fps
Resolution : 8 bits
Colorimetry : 4:2:0
Scan type : Progressive
Bits/(Pixel*Frame) : 0.272
Stream size : 3.70 GiB (85
Title : Encoded by GYN

Audio #1
ID : 2
Format : AC-3
Format/Info : Audio Coding 3
Codec ID : A_AC3
Duration : 1h 32mn
Bit rate mode : Constant
Bit rate : 448 Kbps
Channel(s) : 6 channels
Channel positions : Front: L C R, Surround: L R, LFE
Sampling rate : 48.0 KHz
Stream size : 296 MiB (7
Title : DUB
Language : Russian

Audio #2
ID : 3
Format : AC-3
Format/Info : Audio Coding 3
Codec ID : A_AC3
Duration : 1h 32mn
Bit rate mode : Constant
Bit rate : 448 Kbps
Channel(s) : 6 channels
Channel positions : Front: L C R, Surround: L R, LFE
Sampling rate : 48.0 KHz
Stream size : 296 MiB (7
Title : Original
Language : English

Text #1
ID : 4
Format : UTF-8
Codec ID : S_TEXT/UTF8
Codec ID/Info : UTF-8 Plain Text
Language : Russian

Text #2
ID : 5
Format : UTF-8
Codec ID : S_TEXT/UTF8
Codec ID/Info : UTF-8 Plain Text
Language : English

Язык: Русский дублированный + Украинский дублированный (448/отдельно) + Английская дорожка.

Субтитры: Русские, Английские.

Скриншоты для оценки качества (превью - увеличение по клику):


Релиз:
Автор рипа: GYN

   
Торрент: Зарегистрирован [Май 22, 2013, 3:40 pm]
Мультфильмы Скачать торрент Магнет ссылка Смотреть онлайн
Скачать торрент
[ Размер 24.38 КБ / Просмотров 54 ]
Статус:
---
---
.torrent скачан: 1 раз
Приватный: Нет (DHT включён)
Размер: 4.66 ГБ (4 999 455 180)
   
Аватара пользователя
Denny
 
Раздал: 7.49 ТБ
Скачал: 807.97 ГБ
Ратио: 1007.499
Сообщения: 1934
Зарегистрирован: Ноябрь 19, 2012, 10:49 pm
Откуда: Россия

Флаг страны: Russia

  • Похожие торренты
    Ответы
    Просмотры
    Последнее сообщение

Вернуться в Мультфильмы



Кто сейчас на конференции

Сейчас эту тему просматривают: нет зарегистрированных пользователей и гости: 1

Ресурс не содержит никакой другой информации, кроме описаний отдельных файлов или их групп, имеющихся у некоторых пользователей данного ресурса. Подтверждением наличия данных файлов у пользователя может иногда являться специальный набор значений, представляющих собой результаты применения односторонних хеш-функций к этим файлам или их группам. Данные наборы значений объединяются пользователями в единое целое и могут быть выложены ими вместе с описаниями имеющихся у них файлов. Администрация данного ресурса не имеет физической возможности убедиться, что описания файлов, выложенные нашими пользователями, равно как и созданные ими наборы хешей от файлов, соответствуют реальным файлам имеющимся у пользователей, а не созданы каким-либо иным способом.
cron
Яндекс.Метрика