Paul McCartney and Wings - Rockshow (2013) BDRip 720p от MediaClub

Видеоклипы
 Статистика раздачи 
Размер: 9.5 ГБ   |  Зарегистрирован: Сентябрь 7, 2013, 8:20 pm   |   .torrent скачан: 29 раз
Сидеров: 15  [ 0 байт/сек ]   Личеров: 2  [ 0 байт/сек ]  

Paul McCartney and Wings - Rockshow (2013) BDRip 720p от MediaClub

Сообщение Denny » Сентябрь 7, 2013, 8:20 pm



Информация о фильме
Оригинальное название: Paul McCartney and Wings - Rockshow
Год выпуска: 2013
Жанр: Rock
Исполнители: Paul McCartney, Linda McCartney, Hamish Stuart, Robbie McIntosh, Paul "Wix" Wickens, Chris Whitten

О фильме: В 1975 и 1976 годах Paul McCartney и Wings совершили эпическое мировое турне, наиболее масштабное из всех, что они делали как группа когда-либо. Из этих двух легендарных туров и вышел тройной концертный альбом WINGS OVER AMERICA и фльм-концерт Rockshow . Кульминацией этого тура было представление в громадном Kingdome in Seattle, Washington, на котором присутствовали 67 тысяч фанов Wings. Хотя оригинальная версия этого концерта не имела своего премьерного показа до ноября 1980 года в Нью Йорке и апреле 1981 года в Лондоне. Он был издан на Betamax и позже на лазерном диске. Сейчас впервые этот концерт целиком восстановлен из оригинального 35 мм негатива с обработанным звуком из оригинальных аудио треков к концерту.

01. Venus And Mars / Rock Show / Jet
02. Let Me Roll It
03. Spirits Of Ancient Egypt
04. Medicine Jar
05. Maybe I m Amazed
06. Call Me Back Again
07. Lady Madonna
08. The Long And Winding Road
09. Live And Let Die
10. Picasso s Last Words
11. Richard Cory
12. Bluebird
13. I ve Just Seen A Face
14. Blackbird
15. Yesterday
16. You Gave Me The Answer
17. Magneto And Titanium Man
18. Go Now
19. My Love
20. Listen To What The Man Said
21. Let Em In
22. Time To Hide
23. Silly Love Songs
24. Beware My Love
25. Letting Go
26. Band on the Run
27. Hi Hi Hi
28. Soily


Страна: Великобритания
Студия: Eagle Rock Entertainment
Продолжительность: 02:09:28
Перевод: Не требуется

Файл
Кодек: x264
Качество: BDRip 720p
Видео: MPEG-4 AVC, 9000 Кбит/c, 1280x690, 23.976 кадр/c
Звук: Английский (DTS, 6 ch, 1510 Кбит/c)





Общее
Уникальный идентификатор                 : 235331712843010567466747529979249528145 (0xB10B3D40542AB0EBB667EDCD42878D51)
Полное имя                               : Paul.McCartney.and.Wings-Rockshow.2013.BDRip.(720p)-MediaClub.mkv
Формат                                   : Matroska
Версия формата                           : Version 2
Размер файла                             : 9,50 Гбайт
Продолжительность                        : 2 ч. 9 м.
Общий поток                              : 10,5 Мбит/сек
Название фильма                          : Paul McCartney and Wings - Rockshow (MediaClub-kaspr)
Дата кодирования                         : UTC 2013-06-17 05:05:21
Программа кодирования                    : mkvmerge v5.7.0 ('The Whirlwind') built on Aug  7 2012 14:11:40
Библиотека кодирования                   : libebml v1.2.3 + libmatroska v1.3.0

Видео
Идентификатор                            : 1
Формат                                   : AVC
Формат/Информация                        : Advanced Video Codec
Профиль формата                          : High@L4.1
Параметр CABAC формата                   : Да
Параметр ReFrames формата                : 8 кадров
Идентификатор кодека                     : V_MPEG4/ISO/AVC
Продолжительность                        : 2 ч. 9 м.
Битрейт                                  : 9000 Кбит/сек
Ширина                                   : 1280 пикселей
Высота                                   : 690 пикселей
Соотношение сторон                       : 1,85:1
Режим частоты кадров                     : Постоянный
Частота кадров                           : 23,976 кадра/сек
Цветовое пространство                    : YUV
Субдискретизация насыщенности            : 4:2:0
Битовая глубина                          : 8 бит
Тип развёртки                            : Прогрессивная
Бит/(Пиксели*Кадры)                      : 0.425
Размер потока                            : 7,95 Гбайт (84%)
Заголовок                                : Paul McCartney and Wings - Rockshow (MediaClub-kaspr)
Библиотека кодирования                   : x264 core 133 r2334 a3ac64b
Настройки программы                      : cabac=1 / ref=8 / deblock=1:-3:-3 / analyse=0x3:0x133 / me=umh / subme=10 / psy=1 / psy_rd=1.00:0.10 / mixed_ref=1 / me_range=32 / chroma_me=1 / trellis=2 / 8x8dct=1 / cqm=0 / deadzone=21,11 / fast_pskip=0 / chroma_qp_offset=-3 / threads=12 / lookahead_threads=2 / sliced_threads=0 / nr=0 / decimate=0 / interlaced=0 / bluray_compat=0 / constrained_intra=0 / bframes=8 / b_pyramid=2 / b_adapt=2 / b_bias=0 / direct=3 / weightb=1 / open_gop=0 / weightp=2 / keyint=240 / keyint_min=22 / scenecut=40 / intra_refresh=0 / rc=2pass / mbtree=0 / bitrate=9000 / ratetol=1.0 / qcomp=0.60 / qpmin=0 / qpmax=69 / qpstep=4 / cplxblur=20.0 / qblur=0.5 / ip_ratio=1.40 / pb_ratio=1.30 / aq=1:1.00
Default                                  : Да
Forced                                   : Да

Аудио
Идентификатор                            : 2
Формат                                   : DTS
Формат/Информация                        : Digital Theater Systems
Профиль формата                          : 96/24 / Core
Идентификатор кодека                     : A_DTS
Продолжительность                        : 2 ч. 9 м.
Вид битрейта                             : Постоянный
Битрейт                                  : 1510 Кбит/сек
Каналы                                   : 6 каналов
Расположение каналов                     : Front: L C R, Side: L R, LFE
Частота                                  : 96,0 КГц / 48,0 КГц
Битовая глубина                          : 24 бит
Метод сжатия                             : С потерями
Размер потока                            : 1,37 Гбайт (14%)
Язык                                     : English
Default                                  : Да
Forced                                   : Да

Меню
00:00:00.000                             : en:Venus And Mars / Rock Show / Jet
00:10:39.430                             : en:Let Me Roll It
00:14:34.206                             : en:Spirits Of Ancient Egypt
00:19:06.145                             : en:Medicine Jar
00:23:21.817                             : en:Maybe I m Amazed
00:29:05.910                             : en:Call Me Back Again
00:34:22.060                             : en:Lady Madonna
00:38:36.981                             : en:The Long And Winding Road
00:43:12.715                             : en:Live And Let Die
00:47:15.541                             : enicasso s Last Words
00:49:34.930                             : en:Richard Cory
00:52:35.193                             : en:Bluebird
00:56:43.983                             : en:I ve Just Seen A Face
00:59:13.550                             : en:Blackbird
01:02:13.146                             : en:Yesterday
01:04:40.167                             : en:You Gave Me The Answer
01:07:11.610                             : en:Magneto And Titanium Man
01:10:42.112                             : en:Go Now
01:14:42.477                             : en:My Love
01:19:09.745                             : en:Listen To What The Man Said
01:23:01.059                             : en:Let Em In
01:28:00.900                             : en:Time To Hide
01:33:00.032                             : en:Silly Love Songs
01:39:19.244                             : en:Beware My Love
01:46:31.468                             : en:Letting Go
01:51:01.655                             : en:Band on the Run
01:57:43.473                             : en:Hi Hi Hi
02:01:35.288                             : en:Soily


Релиз от:

   
Торрент: Зарегистрирован [Сентябрь 7, 2013, 8:20 pm]
Клипы Скачать торрент Магнет ссылка Смотреть онлайн
Скачать торрент
[ Размер 24.31 КБ / Просмотров 43 ]
Статус:
---
---
.torrent скачан: 29 раз
Приватный: Нет (DHT включён)
Размер: 9.5 ГБ (10 205 305 310)
   
Аватара пользователя
Denny
 
Раздал: 7.49 ТБ
Скачал: 807.97 ГБ
Ратио: 1007.499
Сообщения: 1934
Зарегистрирован: Ноябрь 19, 2012, 10:49 pm
Откуда: Россия

Флаг страны: Russia

Вернуться в Клипы



Кто сейчас на конференции

Сейчас эту тему просматривают: нет зарегистрированных пользователей и гости: 1

Ресурс не содержит никакой другой информации, кроме описаний отдельных файлов или их групп, имеющихся у некоторых пользователей данного ресурса. Подтверждением наличия данных файлов у пользователя может иногда являться специальный набор значений, представляющих собой результаты применения односторонних хеш-функций к этим файлам или их группам. Данные наборы значений объединяются пользователями в единое целое и могут быть выложены ими вместе с описаниями имеющихся у них файлов. Администрация данного ресурса не имеет физической возможности убедиться, что описания файлов, выложенные нашими пользователями, равно как и созданные ими наборы хешей от файлов, соответствуют реальным файлам имеющимся у пользователей, а не созданы каким-либо иным способом.
cron
Яндекс.Метрика